<?xml version="1.0" standalone="no"?>
<!DOCTYPE svg PUBLIC "-//W3C//DTD SVG 1.1//EN" "http://www.w3.org/Graphics/SVG/1.1/DTD/svg11.dtd" >
<svg>
<metadata>
Created by FontForge 20090914 at Wed Jun 10 13:41:46 2015
 By www-data
&#194;&#169; 2015 K.G. (cyrillic alphabet), &#194;&#169; 2006 Matthew Walters (roman alphabet) All Rights Reserved.
</metadata>
<defs>
<font id="SupernaturalKG" horiz-adv-x="2048" >
  <font-face 
    font-family="Supernatural KG"
    font-weight="400"
    font-stretch="normal"
    units-per-em="2048"
    panose-1="0 0 0 0 0 0 0 0 0 0"
    ascent="1638"
    descent="-410"
    x-height="897"
    cap-height="1778"
    bbox="-352.286 -827.003 2792 2089"
    underline-thickness="100"
    underline-position="-172"
    unicode-range="U+000D-U+FFFC"
  />
<missing-glyph 
 />
    <glyph glyph-name="uniFB50" unicode="&#x671;" arabic-form="isolated" 
 />
    <glyph glyph-name="uniFB51" unicode="&#x671;" arabic-form="final" 
 />
    <glyph glyph-name="uniFB52" unicode="&#x67b;" arabic-form="isolated" 
 />
    <glyph glyph-name="uni067B.fina" unicode="&#x67b;" arabic-form="final" 
 />
    <glyph glyph-name="uni067B.init" unicode="&#x67b;" arabic-form="initial" 
 />
    <glyph glyph-name="uni067B.medi" unicode="&#x67b;" arabic-form="medial" 
 />
    <glyph glyph-name="uniFB56" unicode="&#x67e;" arabic-form="isolated" 
 />
    <glyph glyph-name="uni067E.fina" unicode="&#x67e;" arabic-form="final" 
 />
    <glyph glyph-name="uni067E.init" unicode="&#x67e;" arabic-form="initial" 
 />
    <glyph glyph-name="uni067E.medi" unicode="&#x67e;" arabic-form="medial" 
 />
    <glyph glyph-name="uniFB5A" unicode="&#x680;" arabic-form="isolated" 
 />
    <glyph glyph-name="uni0680.fina" unicode="&#x680;" arabic-form="final" 
 />
    <glyph glyph-name="uni0680.init" unicode="&#x680;" arabic-form="initial" 
 />
    <glyph glyph-name="uni0680.medi" unicode="&#x680;" arabic-form="medial" 
 />
    <glyph glyph-name="uniFB5E" unicode="&#x67a;" arabic-form="isolated" 
 />
    <glyph glyph-name="uni067A.fina" unicode="&#x67a;" arabic-form="final" 
 />
    <glyph glyph-name="uni067A.init" unicode="&#x67a;" arabic-form="initial" 
 />
    <glyph glyph-name="uni067A.medi" unicode="&#x67a;" arabic-form="medial" 
 />
    <glyph glyph-name="uniFB62" unicode="&#x67f;" arabic-form="isolated" 
 />
    <glyph glyph-name="uni067F.fina" unicode="&#x67f;" arabic-form="final" 
 />
    <glyph glyph-name="uni067F.init" unicode="&#x67f;" arabic-form="initial" 
 />
    <glyph glyph-name="uni067F.medi" unicode="&#x67f;" arabic-form="medial" 
 />
    <glyph glyph-name="uniFB66" unicode="&#x679;" arabic-form="isolated" 
 />
    <glyph glyph-name="uni0679.fina" unicode="&#x679;" arabic-form="final" 
 />
    <glyph glyph-name="uni0679.init" unicode="&#x679;" arabic-form="initial" 
 />
    <glyph glyph-name="uni0679.medi" unicode="&#x679;" arabic-form="medial" 
 />
    <glyph glyph-name="uniFB6A" unicode="&#x6a4;" arabic-form="isolated" 
 />
    <glyph glyph-name="uni06A4.fina" unicode="&#x6a4;" arabic-form="final" 
 />
    <glyph glyph-name="uni06A4.init" unicode="&#x6a4;" arabic-form="initial" 
 />
    <glyph glyph-name="uni06A4.medi" unicode="&#x6a4;" arabic-form="medial" 
 />
    <glyph glyph-name="uniFB6E" unicode="&#x6a6;" arabic-form="isolated" 
 />
    <glyph glyph-name="uni06A6.fina" unicode="&#x6a6;" arabic-form="final" 
 />
    <glyph glyph-name="uni06A6.init" unicode="&#x6a6;" arabic-form="initial" 
 />
    <glyph glyph-name="uni06A6.medi" unicode="&#x6a6;" arabic-form="medial" 
 />
    <glyph glyph-name="uniFB72" unicode="&#x684;" arabic-form="isolated" 
 />
    <glyph glyph-name="uni0684.fina" unicode="&#x684;" arabic-form="final" 
 />
    <glyph glyph-name="uni0684.init" unicode="&#x684;" arabic-form="initial" 
 />
    <glyph glyph-name="uni0684.medi" unicode="&#x684;" arabic-form="medial" 
 />
    <glyph glyph-name="uniFB76" unicode="&#x683;" arabic-form="isolated" 
 />
    <glyph glyph-name="uni0683.fina" unicode="&#x683;" arabic-form="final" 
 />
    <glyph glyph-name="uni0683.init" unicode="&#x683;" arabic-form="initial" 
 />
    <glyph glyph-name="uni0683.medi" unicode="&#x683;" arabic-form="medial" 
 />
    <glyph glyph-name="uniFB7A" unicode="&#x686;" arabic-form="isolated" 
 />
    <glyph glyph-name="uni0686.fina" unicode="&#x686;" arabic-form="final" 
 />
    <glyph glyph-name="uni0686.init" unicode="&#x686;" arabic-form="initial" 
 />
    <glyph glyph-name="uni0686.medi" unicode="&#x686;" arabic-form="medial" 
 />
    <glyph glyph-name="uniFB7E" unicode="&#x687;" arabic-form="isolated" 
 />
    <glyph glyph-name="uni0687.fina" unicode="&#x687;" arabic-form="final" 
 />
    <glyph glyph-name="uni0687.init" unicode="&#x687;" arabic-form="initial" 
 />
    <glyph glyph-name="uni0687.medi" unicode="&#x687;" arabic-form="medial" 
 />
    <glyph glyph-name="uniFB82" unicode="&#x68d;" arabic-form="isolated" 
 />
    <glyph glyph-name="uni068D.fina" unicode="&#x68d;" arabic-form="final" 
 />
    <glyph glyph-name="uniFB84" unicode="&#x68c;" arabic-form="isolated" 
 />
    <glyph glyph-name="uni068C.fina" unicode="&#x68c;" arabic-form="final" 
 />
    <glyph glyph-name="uniFB86" unicode="&#x68e;" arabic-form="isolated" 
 />
    <glyph glyph-name="uni068E.fina" unicode="&#x68e;" arabic-form="final" 
 />
    <glyph glyph-name="uniFB88" unicode="&#x688;" arabic-form="isolated" 
 />
    <glyph glyph-name="uni0688.fina" unicode="&#x688;" arabic-form="final" 
 />
    <glyph glyph-name="uniFB8A" unicode="&#x698;" arabic-form="isolated" 
 />
    <glyph glyph-name="uni0698.fina" unicode="&#x698;" arabic-form="final" 
 />
    <glyph glyph-name="uniFB8C" unicode="&#x691;" arabic-form="isolated" 
 />
    <glyph glyph-name="uniFB8D" unicode="&#x691;" arabic-form="final" 
 />
    <glyph glyph-name="uniFB8E" unicode="&#x6a9;" arabic-form="isolated" 
 />
    <glyph glyph-name="uni06A9.fina" unicode="&#x6a9;" arabic-form="final" 
 />
    <glyph glyph-name="uni06A9.init" unicode="&#x6a9;" arabic-form="initial" 
 />
    <glyph glyph-name="uni06A9.medi" unicode="&#x6a9;" arabic-form="medial" 
 />
    <glyph glyph-name="uniFB92" unicode="&#x6af;" arabic-form="isolated" 
 />
    <glyph glyph-name="uni06AF.fina" unicode="&#x6af;" arabic-form="final" 
 />
    <glyph glyph-name="uni06AF.init" unicode="&#x6af;" arabic-form="initial" 
 />
    <glyph glyph-name="uni06AF.medi" unicode="&#x6af;" arabic-form="medial" 
 />
    <glyph glyph-name="uniFB96" unicode="&#x6b3;" arabic-form="isolated" 
 />
    <glyph glyph-name="uni06B3.fina" unicode="&#x6b3;" arabic-form="final" 
 />
    <glyph glyph-name="uni06B3.init" unicode="&#x6b3;" arabic-form="initial" 
 />
    <glyph glyph-name="uni06B3.medi" unicode="&#x6b3;" arabic-form="medial" 
 />
    <glyph glyph-name="uniFB9A" unicode="&#x6b1;" arabic-form="isolated" 
 />
    <glyph glyph-name="uni06B1.fina" unicode="&#x6b1;" arabic-form="final" 
 />
    <glyph glyph-name="uni06B1.init" unicode="&#x6b1;" arabic-form="initial" 
 />
    <glyph glyph-name="uni06B1.medi" unicode="&#x6b1;" arabic-form="medial" 
 />
    <glyph glyph-name="uniFB9E" unicode="&#x6ba;" arabic-form="isolated" 
 />
    <glyph glyph-name="uni06BA.fina" unicode="&#x6ba;" arabic-form="final" 
 />
    <glyph glyph-name="uniFBA0" unicode="&#x6bb;" arabic-form="isolated" 
 />
    <glyph glyph-name="uni06BB.fina" unicode="&#x6bb;" arabic-form="final" 
 />
    <glyph glyph-name="uniFBA2" unicode="&#x6bb;" arabic-form="initial" 
 />
    <glyph glyph-name="uniFBA3" unicode="&#x6bb;" arabic-form="medial" 
 />
    <glyph glyph-name="uniFBA4" unicode="&#x6c0;" arabic-form="isolated" 
 />
    <glyph glyph-name="uni06C0.fina" unicode="&#x6c0;" arabic-form="final" 
 />
    <glyph glyph-name="uniFBA6" unicode="&#x6c1;" arabic-form="isolated" 
 />
    <glyph glyph-name="uniFBA7" unicode="&#x6c1;" arabic-form="final" 
 />
    <glyph glyph-name="uni06C1.init" unicode="&#x6c1;" arabic-form="initial" 
 />
    <glyph glyph-name="uni06C1.medi" unicode="&#x6c1;" arabic-form="medial" 
 />
    <glyph glyph-name="uniFBAA" unicode="&#x6be;" arabic-form="isolated" 
 />
    <glyph glyph-name="uni0647.fina" unicode="&#x6be;" arabic-form="final" 
 />
    <glyph glyph-name="uniFBAC" unicode="&#x6be;" arabic-form="initial" 
 />
    <glyph glyph-name="uni06BE.fina" unicode="&#x6be;" arabic-form="medial" 
 />
    <glyph glyph-name="uniFBAE" unicode="&#x6d2;" arabic-form="isolated" 
 />
    <glyph glyph-name="uni06D2.fina_" unicode="&#x6d2;" arabic-form="final" 
 />
    <glyph glyph-name="uniFBB0" unicode="&#x6d3;" arabic-form="isolated" 
 />
    <glyph glyph-name="uni06D3.fina_" unicode="&#x6d3;" arabic-form="final" 
 />
    <glyph glyph-name="uniFBD3" unicode="&#x6ad;" arabic-form="isolated" 
 />
    <glyph glyph-name="uni06AD.fina" unicode="&#x6ad;" arabic-form="final" 
 />
    <glyph glyph-name="uni06AD.init" unicode="&#x6ad;" arabic-form="initial" 
 />
    <glyph glyph-name="uni06AD.medi" unicode="&#x6ad;" arabic-form="medial" 
 />
    <glyph glyph-name="uniFBD7" unicode="&#x6c7;" arabic-form="isolated" 
 />
    <glyph glyph-name="uni06C7.fina" unicode="&#x6c7;" arabic-form="final" 
 />
    <glyph glyph-name="uniFBD9" unicode="&#x6c6;" arabic-form="isolated" 
 />
    <glyph glyph-name="uni06C6.fina" unicode="&#x6c6;" arabic-form="final" 
 />
    <glyph glyph-name="uniFBDB" unicode="&#x6c8;" arabic-form="isolated" 
 />
    <glyph glyph-name="uni06C8.fina" unicode="&#x6c8;" arabic-form="final" 
 />
    <glyph glyph-name="uniFBDD" unicode="&#x677;" arabic-form="isolated" 
 />
    <glyph glyph-name="uniFBDE" unicode="&#x6cb;" arabic-form="isolated" 
 />
    <glyph glyph-name="uni06CB.fina" unicode="&#x6cb;" arabic-form="final" 
 />
    <glyph glyph-name="uniFBE0" unicode="&#x6c5;" arabic-form="isolated" 
 />
    <glyph glyph-name="uni06C5.fina" unicode="&#x6c5;" arabic-form="final" 
 />
    <glyph glyph-name="uniFBE2" unicode="&#x6c9;" arabic-form="isolated" 
 />
    <glyph glyph-name="uni06C9.fina" unicode="&#x6c9;" arabic-form="final" 
 />
    <glyph glyph-name="uniFBE4" unicode="&#x6d0;" arabic-form="isolated" 
 />
    <glyph glyph-name="uni06D0.fina" unicode="&#x6d0;" arabic-form="final" 
 />
    <glyph glyph-name="uniFBE6" unicode="&#x6d0;" arabic-form="initial" 
 />
    <glyph glyph-name="uniFBE7" unicode="&#x6d0;" arabic-form="medial" 
 />
    <glyph glyph-name="uniFBFC" unicode="&#x6cc;" arabic-form="isolated" 
 />
    <glyph glyph-name="uni06CC.fina" unicode="&#x6cc;" arabic-form="final" 
 />
    <glyph glyph-name="uni064A.init" unicode="&#x6cc;" arabic-form="initial" 
 />
    <glyph glyph-name="uni064A.medi" unicode="&#x6cc;" arabic-form="medial" 
 />
    <glyph glyph-name="uniFC5E" unicode="&#xfc5e;" arabic-form="isolated" 
 />
    <glyph glyph-name="uniFC5F" unicode="&#xfc5f;" arabic-form="isolated" 
 />
    <glyph glyph-name="uniFC60" unicode="&#xfc60;" arabic-form="isolated" 
 />
    <glyph glyph-name="uniFC61" unicode="&#xfc61;" arabic-form="isolated" 
 />
    <glyph glyph-name="uniFC62" unicode="&#xfc62;" arabic-form="isolated" 
 />
    <glyph glyph-name="uniFDF2" unicode="&#xfdf2;" arabic-form="isolated" 
 />
    <glyph glyph-name="uniFDFC" unicode="&#xfdfc;" arabic-form="isolated" 
 />
    <glyph glyph-name="uniFE80" unicode="&#x621;" arabic-form="isolated" 
 />
    <glyph glyph-name="uniFE81" unicode="&#x622;" arabic-form="isolated" 
 />
    <glyph glyph-name="uni0622.fina" unicode="&#x622;" arabic-form="final" 
 />
    <glyph glyph-name="uniFE83" unicode="&#x623;" arabic-form="isolated" 
 />
    <glyph glyph-name="uni0623.fina" unicode="&#x623;" arabic-form="final" 
 />
    <glyph glyph-name="uniFE85" unicode="&#x624;" arabic-form="isolated" 
 />
    <glyph glyph-name="uni0624.fina" unicode="&#x624;" arabic-form="final" 
 />
    <glyph glyph-name="uniFE87" unicode="&#x625;" arabic-form="isolated" 
 />
    <glyph glyph-name="uni0625.fina" unicode="&#x625;" arabic-form="final" 
 />
    <glyph glyph-name="uniFE89" unicode="&#x626;" arabic-form="isolated" 
 />
    <glyph glyph-name="uni0626.fina" unicode="&#x626;" arabic-form="final" 
 />
    <glyph glyph-name="uni0626.init" unicode="&#x626;" arabic-form="initial" 
 />
    <glyph glyph-name="uni0626.medi" unicode="&#x626;" arabic-form="medial" 
 />
    <glyph glyph-name="uniFE8D" unicode="&#x627;" arabic-form="isolated" 
 />
    <glyph glyph-name="uni0627.fina" unicode="&#x627;" arabic-form="final" 
 />
    <glyph glyph-name="uniFE8F" unicode="&#x628;" arabic-form="isolated" 
 />
    <glyph glyph-name="uni0628.fina" unicode="&#x628;" arabic-form="final" 
 />
    <glyph glyph-name="uni0628.init" unicode="&#x628;" arabic-form="initial" 
 />
    <glyph glyph-name="uni0628.medi" unicode="&#x628;" arabic-form="medial" 
 />
    <glyph glyph-name="uniFE93" unicode="&#x629;" arabic-form="isolated" 
 />
    <glyph glyph-name="uni0629.fina" unicode="&#x629;" arabic-form="final" 
 />
    <glyph glyph-name="uniFE95" unicode="&#x62a;" arabic-form="isolated" 
 />
    <glyph glyph-name="uni062A.fina" unicode="&#x62a;" arabic-form="final" 
 />
    <glyph glyph-name="uni062A.init" unicode="&#x62a;" arabic-form="initial" 
 />
    <glyph glyph-name="uni062A.medi" unicode="&#x62a;" arabic-form="medial" 
 />
    <glyph glyph-name="uniFE99" unicode="&#x62b;" arabic-form="isolated" 
 />
    <glyph glyph-name="uni062B.fina" unicode="&#x62b;" arabic-form="final" 
 />
    <glyph glyph-name="uni062B.init" unicode="&#x62b;" arabic-form="initial" 
 />
    <glyph glyph-name="uni062B.medi" unicode="&#x62b;" arabic-form="medial" 
 />
    <glyph glyph-name="uniFE9D" unicode="&#x62c;" arabic-form="isolated" 
 />
    <glyph glyph-name="uni062C.fina" unicode="&#x62c;" arabic-form="final" 
 />
    <glyph glyph-name="uni062C.init" unicode="&#x62c;" arabic-form="initial" 
 />
    <glyph glyph-name="uni062C.medi" unicode="&#x62c;" arabic-form="medial" 
 />
    <glyph glyph-name="uniFEA1" unicode="&#x62d;" arabic-form="isolated" 
 />
    <glyph glyph-name="uni062D.fina" unicode="&#x62d;" arabic-form="final" 
 />
    <glyph glyph-name="uni062D.init" unicode="&#x62d;" arabic-form="initial" 
 />
    <glyph glyph-name="uni062D.medi" unicode="&#x62d;" arabic-form="medial" 
 />
    <glyph glyph-name="uniFEA5" unicode="&#x62e;" arabic-form="isolated" 
 />
    <glyph glyph-name="uni062E.fina" unicode="&#x62e;" arabic-form="final" 
 />
    <glyph glyph-name="uni062E.init" unicode="&#x62e;" arabic-form="initial" 
 />
    <glyph glyph-name="uni062E.medi" unicode="&#x62e;" arabic-form="medial" 
 />
    <glyph glyph-name="uniFEA9" unicode="&#x62f;" arabic-form="isolated" 
 />
    <glyph glyph-name="uni062F.fina" unicode="&#x62f;" arabic-form="final" 
 />
    <glyph glyph-name="uniFEAB" unicode="&#x630;" arabic-form="isolated" 
 />
    <glyph glyph-name="uni0630.fina" unicode="&#x630;" arabic-form="final" 
 />
    <glyph glyph-name="uniFEAD" unicode="&#x631;" arabic-form="isolated" 
 />
    <glyph glyph-name="uni0631.fina" unicode="&#x631;" arabic-form="final" 
 />
    <glyph glyph-name="uniFEAF" unicode="&#x632;" arabic-form="isolated" 
 />
    <glyph glyph-name="uni0632.fina" unicode="&#x632;" arabic-form="final" 
 />
    <glyph glyph-name="uniFEB1" unicode="&#x633;" arabic-form="isolated" 
 />
    <glyph glyph-name="uni0633.fina" unicode="&#x633;" arabic-form="final" 
 />
    <glyph glyph-name="uni0633.init" unicode="&#x633;" arabic-form="initial" 
 />
    <glyph glyph-name="uni0633.medi" unicode="&#x633;" arabic-form="medial" 
 />
    <glyph glyph-name="uniFEB5" unicode="&#x634;" arabic-form="isolated" 
 />
    <glyph glyph-name="uni0634.fina" unicode="&#x634;" arabic-form="final" 
 />
    <glyph glyph-name="uni0634.init" unicode="&#x634;" arabic-form="initial" 
 />
    <glyph glyph-name="uni0634.medi" unicode="&#x634;" arabic-form="medial" 
 />
    <glyph glyph-name="uniFEB9" unicode="&#x635;" arabic-form="isolated" 
 />
    <glyph glyph-name="uni0635.fina" unicode="&#x635;" arabic-form="final" 
 />
    <glyph glyph-name="uni0635.init" unicode="&#x635;" arabic-form="initial" 
 />
    <glyph glyph-name="uni0635.medi" unicode="&#x635;" arabic-form="medial" 
 />
    <glyph glyph-name="uniFEBD" unicode="&#x636;" arabic-form="isolated" 
 />
    <glyph glyph-name="uni0636.fina" unicode="&#x636;" arabic-form="final" 
 />
    <glyph glyph-name="uni0636.init" unicode="&#x636;" arabic-form="initial" 
 />
    <glyph glyph-name="uni0636.medi" unicode="&#x636;" arabic-form="medial" 
 />
    <glyph glyph-name="uniFEC1" unicode="&#x637;" arabic-form="isolated" 
 />
    <glyph glyph-name="uni0637.fina" unicode="&#x637;" arabic-form="final" 
 />
    <glyph glyph-name="uni0637.init" unicode="&#x637;" arabic-form="initial" 
 />
    <glyph glyph-name="uni0637.medi" unicode="&#x637;" arabic-form="medial" 
 />
    <glyph glyph-name="uniFEC5" unicode="&#x638;" arabic-form="isolated" 
 />
    <glyph glyph-name="uni0638.fina" unicode="&#x638;" arabic-form="final" 
 />
    <glyph glyph-name="uni0638.init" unicode="&#x638;" arabic-form="initial" 
 />
    <glyph glyph-name="uni0638.medi" unicode="&#x638;" arabic-form="medial" 
 />
    <glyph glyph-name="uniFEC9" unicode="&#x639;" arabic-form="isolated" 
 />
    <glyph glyph-name="uni0639.fina" unicode="&#x639;" arabic-form="final" 
 />
    <glyph glyph-name="uni0639.init" unicode="&#x639;" arabic-form="initial" 
 />
    <glyph glyph-name="uni0639.medi" unicode="&#x639;" arabic-form="medial" 
 />
    <glyph glyph-name="uniFECD" unicode="&#x63a;" arabic-form="isolated" 
 />
    <glyph glyph-name="uni063A.fina" unicode="&#x63a;" arabic-form="final" 
 />
    <glyph glyph-name="uni063A.init" unicode="&#x63a;" arabic-form="initial" 
 />
    <glyph glyph-name="uni063A.medi" unicode="&#x63a;" arabic-form="medial" 
 />
    <glyph glyph-name="uniFED1" unicode="&#x641;" arabic-form="isolated" 
 />
    <glyph glyph-name="uni0641.fina" unicode="&#x641;" arabic-form="final" 
 />
    <glyph glyph-name="uni0641.init" unicode="&#x641;" arabic-form="initial" 
 />
    <glyph glyph-name="uni0641.medi" unicode="&#x641;" arabic-form="medial" 
 />
    <glyph glyph-name="uniFED5" unicode="&#x642;" arabic-form="isolated" 
 />
    <glyph glyph-name="uni0642.fina" unicode="&#x642;" arabic-form="final" 
 />
    <glyph glyph-name="uni0642.init" unicode="&#x642;" arabic-form="initial" 
 />
    <glyph glyph-name="uni0642.medi" unicode="&#x642;" arabic-form="medial" 
 />
    <glyph glyph-name="uniFED9" unicode="&#x643;" arabic-form="isolated" 
 />
    <glyph glyph-name="uni0643.fina" unicode="&#x643;" arabic-form="final" 
 />
    <glyph glyph-name="uni0643.init" unicode="&#x643;" arabic-form="initial" 
 />
    <glyph glyph-name="uni0643.medi" unicode="&#x643;" arabic-form="medial" 
 />
    <glyph glyph-name="uniFEDD" unicode="&#x644;" arabic-form="isolated" 
 />
    <glyph glyph-name="uni0644.fina" unicode="&#x644;" arabic-form="final" 
 />
    <glyph glyph-name="uni0644.init" unicode="&#x644;" arabic-form="initial" 
 />
    <glyph glyph-name="uni0644.medi" unicode="&#x644;" arabic-form="medial" 
 />
    <glyph glyph-name="uniFEE1" unicode="&#x645;" arabic-form="isolated" 
 />
    <glyph glyph-name="uni0645.fina" unicode="&#x645;" arabic-form="final" 
 />
    <glyph glyph-name="uni0645.init" unicode="&#x645;" arabic-form="initial" 
 />
    <glyph glyph-name="uni0645.medi" unicode="&#x645;" arabic-form="medial" 
 />
    <glyph glyph-name="uniFEE5" unicode="&#x646;" arabic-form="isolated" 
 />
    <glyph glyph-name="uni0646.fina" unicode="&#x646;" arabic-form="final" 
 />
    <glyph glyph-name="uni0646.init" unicode="&#x646;" arabic-form="initial" 
 />
    <glyph glyph-name="uni0646.medi" unicode="&#x646;" arabic-form="medial" 
 />
    <glyph glyph-name="uniFEE9" unicode="&#x647;" arabic-form="isolated" 
 />
    <glyph glyph-name="uniFEEA" unicode="&#x647;" arabic-form="final" 
 />
    <glyph glyph-name="uniFEEB" unicode="&#x647;" arabic-form="initial" 
 />
    <glyph glyph-name="uniFEEC" unicode="&#x647;" arabic-form="medial" 
 />
    <glyph glyph-name="uniFEED" unicode="&#x648;" arabic-form="isolated" 
 />
    <glyph glyph-name="uni0648.fina" unicode="&#x648;" arabic-form="final" 
 />
    <glyph glyph-name="uniFEEF" unicode="&#x649;" arabic-form="isolated" 
 />
    <glyph glyph-name="uni0649.fina" unicode="&#x649;" arabic-form="final" 
 />
    <glyph glyph-name="uniFEF1" unicode="&#x64a;" arabic-form="isolated" 
 />
    <glyph glyph-name="uni064A.fina" unicode="&#x64a;" arabic-form="final" 
 />
    <glyph glyph-name="uniFEF3" unicode="&#x64a;" arabic-form="initial" 
 />
    <glyph glyph-name="uniFEF4" unicode="&#x64a;" arabic-form="medial" 
 />
    <glyph glyph-name="uni06440622.isol" unicode="&#xfef5;" arabic-form="isolated" 
 />
    <glyph glyph-name="uni06440622.fina" unicode="&#xfef6;" arabic-form="final" 
 />
    <glyph glyph-name="uni06440623.isol" unicode="&#xfef7;" arabic-form="isolated" 
 />
    <glyph glyph-name="uni06440623.fina" unicode="&#xfef8;" arabic-form="final" 
 />
    <glyph glyph-name="uni06440625.isol" unicode="&#xfef9;" arabic-form="isolated" 
 />
    <glyph glyph-name="uni06440625.fina" unicode="&#xfefa;" arabic-form="final" 
 />
    <glyph glyph-name="uni06440627.isol" unicode="&#xfefb;" arabic-form="isolated" 
 />
    <glyph glyph-name="uni06440627.fina" unicode="&#xfefc;" arabic-form="final" 
 />
    <glyph glyph-name=".notdef" 
 />
    <glyph glyph-name="NULL" 
 />
    <glyph glyph-name="NULL" 
 />
    <glyph glyph-name="nonmarkingreturn" unicode="&#xd;" 
 />
    <glyph glyph-name="space" unicode=" " horiz-adv-x="808" 
 />
    <glyph glyph-name="exclam" unicode="!" horiz-adv-x="474" 
d="M315 1535c4.66699 -52.667 8.49902 -154.332 11.499 -304.999s5.5 -350.667 7.5 -600s3.66699 -435.833 5 -559.5s2 -184.834 2 -183.501c0 -22 -8.66699 -33 -26 -33c2.66699 0 -27 34 -89 102l-75.5 84l-41.5 49c39.333 17.333 57 57.333 53 120c-4 64 -7 320 -9 768
c-1.33301 225.333 -9.16602 407.833 -23.499 547.5s-36.5 238.5 -66.5 296.5zM352.999 -310.998c0 -24 -9.33301 -44.333 -28 -61s-40 -25 -64 -25c-61.333 0 -92 28.667 -92 86c0 64 36.667 96 110 96c49.333 0 74 -32 74 -96z" />
    <glyph glyph-name="quotedbl" unicode="&#x22;" horiz-adv-x="384" 
d="M408 1305c2.66699 -2.66699 0.333008 -15.667 -7 -39c-10 -33.333 -10 -79.333 0 -138c7.33301 -41.333 11 -77.166 11 -107.499s-3.66699 -55.833 -11 -76.5c-6 -17.333 -12.667 -29 -20 -35c-7.33301 -3.33301 -16 -2.33301 -26 3c-10.667 6 -17 12.667 -19 20
c-2 8.66699 0.666992 19.667 8 33c10 32 8.66699 84.333 -4 157c-12 68 -10.667 122.667 4 164c4.66699 13.333 10 23.666 16 30.999c2.66699 2.66699 6.66699 4 12 4c6.66699 0 13 -1.33301 19 -4l7.5 -5c3 -2 6.16699 -4.33301 9.5 -7zM239.999 1305
c2.66699 -2.66699 0.332031 -15.668 -7.00098 -39.001c-10 -33.333 -10 -79.333 0 -138c7.33301 -41.333 11 -77.166 11 -107.499s-3.66699 -55.833 -11 -76.5c-6 -17.333 -12.667 -29 -20 -35c-7.33301 -3.33301 -16 -2.33301 -26 3c-10.667 6 -17 12.667 -19 20
c-2 8.66699 0.666992 19.667 8 33c10 32 8.66699 84.333 -4 157c-11.333 68 -10 122.667 4 164c4.66699 14 10.334 24.333 17.001 31c2 2.66699 5.66699 4 11 4c6.66699 0 13 -1.33301 19 -4l7.5 -5c3 -2 6.16699 -4.33301 9.5 -7z" />
    <glyph glyph-name="numbersign" unicode="#" horiz-adv-x="1202" 
d="M1110 439c2 -8.66699 0.666016 -17.333 -4.00098 -26c-4 -5.33301 -9 -11 -15 -17c-5.33301 -7.33301 -17.333 -5.33301 -36 6l-113.5 38.5l-226.5 76.5l-71.5 -216.5l-78.5 -235.5c-6 -16.667 -12.667 -28.334 -20 -35.001c-7.33301 -3.33301 -16.333 -2 -27 4
c-2.66699 1.33301 -8 6 -16 14c-4.66699 4.66699 -2.66699 17 6 37l54 170l91 285l-129 46l-182 62l-199 -583c-4 -12 -10.667 -23.667 -20 -35c-10 -2.66699 -19 -1.33398 -27 3.99902c-10 6.66699 -15.333 11.334 -16 14.001c-6.66699 6.66699 -4.66699 19 6 37l73 220.5
l121 365.5l-93.5 33.5l-108.5 37.5c-14.667 5.33301 -26.334 12.333 -35.001 21c-4 8 -2.66699 17 4 27c2.66699 4 7.33398 9.33301 14.001 16c3.33301 3.33301 15.666 1.33301 36.999 -6l76 -26l125 -42l102 303l-323 109c-22 4.66699 -33 13.334 -33 26.001
c0 8.66699 1 17.667 3 27s8.33301 14 19 14c8 0 18.333 -3.33301 31 -10l123.5 -39l200.5 -65l164 481c5.33301 15.333 12 27 20 35c10.667 2 19.667 0.666992 27 -4c1.33301 -1.33301 3.5 -3.33301 6.5 -6s6.16699 -5.66699 9.5 -9c2 -1.33301 0 -13.333 -6 -36
c-6 -21.333 -22.333 -72.166 -49 -152.499l-111 -329.5l155.5 -49.5l151.5 -50.5l197 602c4.66699 14.667 11.334 26.334 20.001 35.001c9.33301 1.33301 18.333 0 27 -4c2.66699 -2 8 -7 16 -15c2.66699 -2 0.666992 -14 -6 -36l-71 -227.5l-119 -373.5l102.5 -34.5
l118.5 -40.5c11.333 -2 23 -9 35 -21c3.33301 -8.66699 2 -17.334 -4 -26.001c-4 -5.33301 -9 -11 -15 -17c-5.33301 -7.33301 -17.333 -5.33301 -36 6c-0.666992 0.666992 -74 24.667 -220 72l-44.5 -138.5l-57.5 -178.5l178 -60.5l164 -58.5
c7.33301 -2.66699 13.833 -5.83398 19.5 -9.50098s10.834 -7.5 15.501 -11.5zM771.999 914.001l-128 42l-181 59l-42.5 -126.5l-60.5 -178.5l131.5 -45l180.5 -64c12 41.333 26.333 87.833 43 139.5z" />
    <glyph glyph-name="dollar" unicode="$" horiz-adv-x="1047" 
d="M938 397c0 -100.667 -39.666 -188.001 -118.999 -262.001c-52.667 -50 -136.667 -86 -252 -108c-8 -2 -10.667 -104.333 -8 -307h-25c-17.333 0 -26 10.333 -26 31c0 4.66699 1 47 3 127c2 78.667 3 120.667 3 126c0 9.33301 -6 14 -18 14
c-44 -1.33301 -83.333 1.5 -118 8.5s-65.667 17.167 -93 30.5c-97.333 49.333 -146 107.333 -146 174c0 30 17 45 51 45c16 0 38.667 -12.667 68 -38c20 -17.333 42.667 -62.666 68 -135.999c6 -18 59 -30 159 -36c16.667 -0.666992 25 5.33301 25 18
c0 2.66699 0.333008 25.5 1 68.5l3 191.5l3 192.5c0.666992 43 1 66.167 1 69.5c0 10.667 -3.33301 17 -10 19c-108.667 33.333 -188 75 -238 125c-66.667 66.667 -100 143 -100 229c0 99.333 38.333 187.333 115 264c54.667 54.667 127.667 88 219 100
c9.33301 0 14 4.33301 14 13v96c0 18 11.667 27 35 27c12 0 18 -5.66699 18 -17v-15c0 -8 -0.333008 -19 -1 -33c-0.666992 -13.333 -1 -24 -1 -32v-16c0 -12 5 -18 15 -18c88.667 0 154.667 -11 198 -33c60 -31.333 90 -67 90 -107c0 -27.333 -14.333 -41 -43 -41
c-50.667 0 -95 35 -133 105c-11.333 20.667 -47.333 31 -108 31c-12.667 0 -19 -4.33301 -19 -13c0 -5.33301 -1 -90 -3 -254c-2 -163.333 -3 -248 -3 -254c0 -16.667 3.33301 -26 10 -28c137.333 -38.667 232.666 -89.667 285.999 -153c52.667 -62.667 79 -130.667 79 -204
zM518.001 1276c0 8.66699 -1.33203 14.001 -3.99902 16.001c-1.33301 2.66699 -6 3.33398 -14 2.00098c-52.667 -8.66699 -105.334 -34.334 -158.001 -77.001c-10 -10 -23 -32.667 -39 -68c-13.333 -30.667 -20 -68.334 -20 -113.001c0 -64 15.667 -112.333 47 -145
c55.333 -57.333 109.333 -95 162 -113c11.333 -4 18.333 -5.33301 21 -4c2 0.666992 3 4 3 10zM827.002 342c0 64.667 -26.334 119.332 -79.001 163.999c-54.667 46.667 -108.667 76 -162 88c-12.667 2.66699 -19 -2 -19 -14c0 -7.33301 -2 -88.333 -6 -243
c-4 -155.333 -6 -235.666 -6 -240.999c0 -23.333 6.66699 -33.333 20 -30c35.333 7.33301 68.333 19.166 99 35.499s59.334 37.833 86.001 64.5c44.667 44.667 67 103.334 67 176.001z" />
    <glyph glyph-name="percent" unicode="%" horiz-adv-x="1647" 
d="M1561 358c0 -69.333 -10.999 -131.334 -32.999 -186.001c-25.333 -62 -71 -113.333 -137 -154c-46 -26.667 -98.667 -40 -158 -40c-71.333 0 -119 7 -143 21c-61.333 25.333 -108 72 -140 140c-30 64.667 -45 135.667 -45 213c0 86 16 158 48 216
c32.667 58.667 76 102 130 130c45.333 23.333 107 35 185 35c29.333 0 56.5 -2.83301 81.5 -8.5s48.167 -15.167 69.5 -28.5c26.667 -17.333 48.667 -37.833 66 -61.5s31.666 -50.5 42.999 -80.5c22 -59.333 33 -124.666 33 -195.999zM1454 318.999
c0 107.333 -24.668 194.334 -74.001 261.001c-48 64 -114 96 -198 96c-38.667 0 -65 -2.66699 -79 -8c-15.333 -6 -30 -19.667 -44 -41c-28.667 -44.667 -43 -113 -43 -205c0 -96 15.667 -182 47 -258c22 -53.333 51.333 -92.333 88 -117
c30.667 -20.667 65.334 -31 104.001 -31c44.667 0 79.667 7.66699 105 23c31.333 19.333 56 54.666 74 105.999c13.333 37.333 20 95.333 20 174zM1071 1356c6 -6 3.99902 -18.3359 -6.00098 -37.0029l-165 -498l-335 -994c-5.33301 -15.333 -12 -27 -20 -35
c-12 0 -21.333 1.66699 -28 5s-11.667 8 -15 14c-7.33301 6 -5.33301 18 6 36l240.5 717l259.5 775c4.66699 14.667 11.334 26.334 20.001 35.001c10 0 19 -1.33301 27 -4c2 -1.33301 4.33301 -3.16602 7 -5.49902s5.66699 -5.16602 9 -8.49902zM718.999 914.997
c0 -69.333 -11 -131.334 -33 -186.001c-25.333 -62 -71 -113.333 -137 -154c-45.333 -27.333 -98 -41 -158 -41c-70.667 0 -118.334 7 -143.001 21c-60.667 26 -107 73 -139 141c-30.667 66.667 -46 137.667 -46 213c0 86.667 16.333 158.667 49 216
c32.667 58.667 76 102 130 130c44.667 23.333 106 35 184 35c58.667 0 109.334 -12.333 152.001 -37c25.333 -17.333 46.833 -37.833 64.5 -61.5s32.167 -50.5 43.5 -80.5c22 -59.333 33 -124.666 33 -195.999zM611.999 876.996c0 108 -24.333 194.668 -73 260.001
c-48 64 -114.333 96 -199 96c-34.667 0 -58 -1.66699 -70 -5c-20 -6 -37.667 -20.667 -53 -44c-28.667 -43.333 -43 -111.666 -43 -204.999c0 -96 15.667 -182 47 -258c22 -53.333 51.333 -92.333 88 -117c30.667 -20.667 65.667 -31 105 -31c44 0 78.667 7.66699 104 23
c31.333 19.333 56 54.666 74 105.999c7.33301 19.333 12.5 43.666 15.5 72.999s4.5 63.333 4.5 102z" />
    <glyph glyph-name="ampersand" unicode="&#x26;" horiz-adv-x="1772" 
d="M1725 313c0 -9.33301 -5.66699 -27.3398 -17 -54.0068c-28 -66.667 -74.333 -124 -139 -172c-23.333 -17.333 -54 -26 -92 -26c-30 0 -71 7.33301 -123 22c-51.333 14.667 -115 45.334 -191 92.001c-11.333 7.33301 -22.666 8 -33.999 2
c-35.333 -20.667 -64.5 -37.167 -87.5 -49.5s-40.167 -20.5 -51.5 -24.5c-74 -26.667 -175.333 -40 -304 -40c-216.667 0 -374.334 47.667 -473.001 143c-84.667 82.667 -127 199.334 -127 350.001c0 88.667 20 172 60 250c20.667 40 48.667 74.333 84 103
c28 22.667 56 40.334 84 53.001c6 2.66699 5 10.667 -3 24c-7.33301 12 -14.166 24.5 -20.499 37.5s-12.166 26.5 -17.499 40.5c-18 44.667 -27 83 -27 115c0 16.667 9.66699 37.667 29 63c53.333 70 118.666 124.667 195.999 164c8 4 25 6 51 6c28.667 0 66.667 -6 114 -18
c25.333 -6.66699 47 -13.334 65 -20.001s32.333 -13.667 43 -21c12.667 -9.33301 18.667 -18.333 18 -27c-1.33301 -15.333 -4 -31.833 -8 -49.5s-9.66699 -36.5 -17 -56.5c-10 -27.333 -16 -41 -18 -41c-2.66699 0 -9.33398 7.33301 -20.001 22
c-13.333 18.667 -34 33.667 -62 45c-67.333 28.667 -137 43 -209 43c-58.667 0 -88 -21 -88 -63c0 -24.667 12.333 -58.667 37 -102c11.333 -19.333 29 -46 53 -80s54.667 -75 92 -123c89.333 -115.333 157 -191.333 203 -228c7.33301 -6 13.333 -8.33301 18 -7
c3.33301 1.33301 5 5.33301 5 12c-4 124 27.333 212 94 264c48.667 38 117 57 205 57c57.333 0 131 -11.667 221 -35c72 -18.667 148.333 -28 229 -28c47.333 0 84.333 9.33301 111 28c34.667 24 52 56 52 96v9.5c0 3 -0.333008 6.16699 -1 9.5
c-0.666992 10.667 0.666016 17.334 3.99902 20.001c9.33301 6.66699 14.333 10.334 15 11.001c1.33301 1.33301 4 -0.666992 8 -6c10.667 -17.333 16 -42.666 16 -75.999c0 -60 -11.667 -103.667 -35 -131c-45.333 -52 -89 -78 -131 -78c-36.667 0 -107 13 -211 39
c-8 2 -12.333 1.66699 -13 -1c-2 -2.66699 -0.333008 -8 5 -16c42.667 -63.333 64 -133.666 64 -210.999c0 -136.667 -37.667 -252.667 -113 -348c-5.33301 -6 -3.33301 -12.667 6 -20c16.667 -17.333 63 -38 139 -62c21.333 -7.33301 41.833 -12.5 61.5 -15.5
s38.834 -4.5 57.501 -4.5c64 0 116 34 156 102c7.33301 13.333 13.333 21.666 18 24.999c4 -1.33301 7.33301 -2.66602 10 -3.99902c6 -5.33301 9 -8.66602 9 -9.99902zM1331 564.993c0 86.667 -27.335 157.001 -82.002 211.001c-62 61.333 -138.333 92 -229 92
c-73.333 0 -126.666 -16.333 -159.999 -49c-36.667 -34.667 -55 -85 -55 -151c0 -72.667 13.667 -123.334 41 -152.001c15.333 -16 36.333 -35.167 63 -57.5s59.334 -48.166 98.001 -77.499c81.333 -61.333 145 -104.333 191 -129
c16.667 -8.66699 29.667 -7.33398 39 3.99902c62.667 75.333 94 178.333 94 309zM1085 130.994c5.33301 4.66699 4 10 -4 16l-109 75l-100 73c-38 28.667 -76 60.167 -114 94.5s-76.333 71.833 -115 112.5c-118.667 124.667 -211.334 238 -278.001 340
c-6 10 -13 12.667 -21 8c-32 -16.667 -60.333 -47 -85 -91c-28 -50 -42 -104.333 -42 -163c0 -47.333 4 -92.333 12 -135c16 -82.667 57 -157 123 -223c74.667 -74.667 159.334 -124 254.001 -148c26.667 -7.33301 57.5 -12.5 92.5 -15.5s74.5 -4.5 118.5 -4.5
c134 0 223.333 20.333 268 61z" />
    <glyph glyph-name="quotesingle" unicode="'" horiz-adv-x="228" 
d="M240 1305c2.66699 -2.66699 0.332031 -15.668 -7.00098 -39.001c-10 -33.333 -10 -79.333 0 -138c7.33301 -41.333 11 -77.166 11 -107.499s-3.66699 -55.833 -11 -76.5c-6 -17.333 -12.667 -29 -20 -35c-7.33301 -3.33301 -16 -2.33301 -26 3
c-10.667 6 -17 12.667 -19 20c-2 8.66699 0.666992 19.667 8 33c10 32 8.66699 84.333 -4 157c-11.333 68 -10 122.667 4 164c4.66699 14 10.334 24.333 17.001 31c2 2.66699 5.66699 4 11 4c6.66699 0 13 -1.33301 19 -4l7.5 -5c3 -2 6.16699 -4.33301 9.5 -7z" />
    <glyph glyph-name="parenleft" unicode="(" horiz-adv-x="672" 
d="M720 1585c0 -4.66699 -8.33301 -13.9971 -25 -27.9971c-22.667 -18.667 -45.834 -40.834 -69.501 -66.501s-48.167 -54.834 -73.5 -87.501c-28 -36 -52.167 -70.167 -72.5 -102.5s-36.5 -63.5 -48.5 -93.5c-70.667 -171.333 -106 -381.666 -106 -630.999
c0 -285.333 56.667 -516.333 170 -693c30 -48 97.667 -113.333 203 -196c10.667 -8.66699 16 -16.334 16 -23.001s-4.33301 -14.667 -13 -24c-9.33301 -10 -16 -15 -20 -15c-5.33301 0 -15.666 5.66699 -30.999 17c-69.333 50 -132.833 106.167 -190.5 168.5
s-110.167 131.166 -157.5 206.499c-109.333 177.333 -164 370 -164 578c0 257.333 77.333 493.333 232 708c89.333 124 184.333 223.667 285 299c16 12 28 18 36 18c7.33301 0 14.333 -5.33301 21 -16c5.33301 -8.66699 8 -15 8 -19z" />
    <glyph glyph-name="parenright" unicode=")" horiz-adv-x="782" 
d="M678 643c0 -221.333 -62.667 -427.667 -188 -619c-46 -69.333 -98.333 -136.166 -157 -200.499s-124.334 -126.5 -197.001 -186.5c-20.667 -16.667 -32.334 -25 -35.001 -25c-5.33301 0 -12.333 6 -21 18c-6 8 -9 15 -9 21c0 6.66699 8.66699 17 26 31
c74.667 61.333 136.667 128 186 200c135.333 196.667 203 442 203 736c0 142.667 -8.66699 259.334 -26 350.001c-13.333 68 -37.333 145.333 -72 232c-53.333 130 -146.666 244.333 -279.999 343c-17.333 13.333 -26 23 -26 29c0 3.33301 5.33301 10 16 20
s17.334 15 20.001 15c10.667 0 23.667 -5.66699 39 -17c60.667 -44.667 115 -90.334 163 -137.001s90 -94.334 126 -143.001s67.333 -95.667 94 -141s48.667 -89 66 -131c48 -119.333 72 -251 72 -395z" />
    <glyph glyph-name="asterisk" unicode="*" horiz-adv-x="995" 
d="M891 1104c0 -4.66699 -6.33496 -31.999 -19.002 -81.999l-8.5 -37l-9.5 -43c-2.66699 -6.66699 -11 -10 -25 -10c-1.33301 0 -7.83301 0.833008 -19.5 2.5s-28.167 4.16699 -49.5 7.5l-142.5 21.5c-34.333 5 -55.833 7.5 -64.5 7.5l34 -66l46 -88
c21.333 -41.333 45.333 -74 72 -98c4.66699 -2.66699 9.16699 -6.16699 13.5 -10.5l14.5 -14.5c0.666992 -2.66699 -2.66602 -6.66699 -9.99902 -12c-1.33301 -0.666992 -12.666 -3 -33.999 -7c-10 -2 -18.5 -3.5 -25.5 -4.5s-12.5 -1.83301 -16.5 -2.5
c-40.667 -4 -66 -7 -76 -9c-8.66699 0 -15.334 6.33301 -20.001 19l-12 32c-4 10.667 -7.66699 21.667 -11 33c-11.333 54.667 -26.333 121.667 -45 201l-118 -133c-8 -5.33301 -21.333 -22 -40 -50c-18.667 -26.667 -28 -43.334 -28 -50.001
c0 -16.667 -3.33301 -28.334 -10 -35.001c-6 -6 -11 -5.33301 -15 2c-5.33301 7.33301 -11.5 16.333 -18.5 27l-24.5 36c-4.66699 12.667 -10 25 -16 37s-12.667 23.667 -20 35c-4 5.33301 -1.33301 13.666 8 24.999c0.666992 0.666992 5.66699 4.33398 15 11.001l42 30
c23.333 13.333 48.333 28.5 75 45.5l85 56.5l-72.5 -7c-27 -2.66699 -56.833 -5 -89.5 -7c-23.333 -1.33301 -44.5 -4.5 -63.5 -9.5s-36.167 -12.167 -51.5 -21.5c-13.333 -10 -24 -14 -32 -12c-7.33301 0 -11 4 -11 12c0 3.33301 2.33301 14 7 32
c2.66699 9.33301 4.83398 17.5 6.50098 24.5s2.83398 12.833 3.50098 17.5c0 2 7.33301 27 22 75c2 7.33301 9 11 21 11c8 0 18.167 -0.333008 30.5 -1s26.5 -2.33398 42.5 -5.00098l93 -15.5c34 -5.66699 72 -11.5 114 -17.5c-14.667 42.667 -40.667 98 -78 166
c-18 32.667 -43 62.667 -75 90c-12.667 4.66699 -21 12 -25 22c-3.33301 6.66699 -1.33301 11.667 6 15l34 2.5c13.333 1 28 2.83301 44 5.5c24 4 42.5 7.33301 55.5 10s20.5 4 22.5 4c6.66699 2 11.334 -4 14.001 -18c0.666992 -0.666992 4 -11 10 -31l8 -22.5
c2 -5.66699 3.66699 -9.83398 5 -12.501c6.66699 -28 14.667 -59.5 24 -94.5l31 -118.5l50 54.5c19.333 21 41 45.833 65 74.5c31.333 38.667 51.666 77.667 60.999 117c4.66699 18.667 12.334 30.334 23.001 35.001c10.667 -17.333 25.667 -39.333 45 -66
c3.33301 -7.33301 8.66602 -17 15.999 -29s16.333 -26 27 -42c0 -8.66699 -4.33301 -17 -13 -25c-7.33301 -5.33301 -15.5 -11.833 -24.5 -19.5l-30.5 -25.5l-23 -14l-38 -23c-38 -24 -62.667 -42.333 -74 -55c18 0.666992 38.167 1.33398 60.5 2.00098s47.166 2 74.499 4
c60.667 4.66699 99.667 13.334 117 26.001c17.333 12 31 17 41 15z" />
    <glyph glyph-name="plus" unicode="+" horiz-adv-x="987" 
d="M799 627c0 -41.333 -4.99707 -62.002 -14.9971 -62.002c4 0 0 0 -12 0s-32.333 0.333008 -61 1s-56.834 1 -84.501 1h-83.5v-81c0 -27.333 -0.333008 -56 -1 -86s-1 -51.667 -1 -65s0 -18.666 0 -15.999c0 -13.333 -20.667 -20 -62 -20c-38 0 -57 4.66699 -57 14
c0 -2 0 4 0 18s0.333008 36 1 66s1 59.167 1 87.5v82.5c-25.333 0 -52.333 0.166992 -81 0.5s-59 0.833008 -91 1.5s-55 1.16699 -69 1.5s-19.667 0.5 -17 0.5c-14 0 -21 13 -21 39c0 20 3.33301 38.667 10 56c6 16 11.667 24 17 24c-1.33301 0 5.16699 0 19.5 0
s36.5 -0.333008 66.5 -1s58.833 -1 86.5 -1h79.5c0 26.667 0.166992 54.167 0.5 82.5s0.833008 57.833 1.5 88.5s1.16699 53 1.5 67s0.5 19.333 0.5 16c0 14 13 21 39 21c8.66699 0 17.167 -0.833008 25.5 -2.5s17.166 -4.16699 26.499 -7.5c18.667 -6 28 -11.667 28 -17
c0 -2 -0.166992 -10.333 -0.5 -25l-1.5 -64c-0.666992 -28 -1.16699 -55.167 -1.5 -81.5s-0.5 -52.166 -0.5 -77.499c27.333 0 54.166 -0.166992 80.499 -0.5s52.833 -0.833008 79.5 -1.5s46.167 -1.16699 58.5 -1.5s17.833 -0.5 16.5 -0.5c14 0 21 -19 21 -57z" />
    <glyph glyph-name="comma" unicode="," horiz-adv-x="410" 
d="M360 -422c0 -90.667 -45.001 -169.332 -135.001 -235.999c-19.333 -14.667 -31.666 -22 -36.999 -22c-8 0 -12 6 -12 18c0 9.33301 7.66699 21.666 23 36.999c47.333 47.333 71 102 71 164c0 24 -6 46.667 -18 68c-7.33301 9.33301 -20.333 14 -39 14
c-27.333 0 -51.333 8 -72 24c-23.333 17.333 -35 39.333 -35 66c0 41.333 30.333 62 91 62c44 0 82 -18.333 114 -55c32.667 -38 49 -84.667 49 -140z" />
    <glyph glyph-name="hyphen" unicode="-" horiz-adv-x="700" 
d="M632 709c-7.33301 -14.667 -16.332 -22.332 -26.999 -22.999c-2 -0.666992 -83.333 -5 -244 -13c-80.667 -4 -142.5 -6.83301 -185.5 -8.5s-67.833 -2.5 -74.5 -2.5h-30c-8 2 -8 12.667 0 32l5 11.5c1.33301 3 2.66602 5.16699 3.99902 6.5c4 4 9.66699 6.33301 17 7
c0.666992 0 21.834 1 63.501 3s104.5 4.66699 188.5 8c82.667 3.33301 145.167 5.66602 187.5 6.99902s65.166 2 68.499 2c14.667 0 23.667 -0.666992 27 -2c4.66699 -2 4.66699 -11.333 0 -28z" />
    <glyph glyph-name="period" unicode="." horiz-adv-x="328" 
d="M261 -317c0 -24 -9.33301 -44.333 -28 -61s-40 -25 -64 -25c-61.333 0 -92 28.667 -92 86c0 64 36.667 96 110 96c49.333 0 74 -32 74 -96z" />
    <glyph glyph-name="slash" unicode="/" horiz-adv-x="553" 
d="M590 1466c2.66699 -3.33301 0.666992 -15.332 -6 -35.999l-76.5 -231.5l-171.5 -513.5l-174.5 -519.5l-77.5 -227.5c-5.33301 -15.333 -12.333 -27 -21 -35c-20 -2.66699 -34.333 3.33301 -43 18c-6 7.33301 -3.66699 19.666 7 36.999l243 743l256 749
c4.66699 14 11.667 25.667 21 35c18 0 32.333 -6.33301 43 -19z" />
    <glyph glyph-name="zero" unicode="0" horiz-adv-x="1717" 
d="M817 1774c47.333 1.33301 88.4971 0.828125 123.497 -1.50488s64.167 -6.16602 87.5 -11.499s48.333 -13.333 75 -24s55.667 -24.334 87 -41.001c62 -33.333 112.667 -68.333 152 -105s86 -93.334 140 -170.001c26.667 -38.667 49.834 -77.5 69.501 -116.5
s36.167 -78.833 49.5 -119.5c26 -81.333 43 -155.333 51 -222c8 -67.333 12 -162 12 -284c0 -60.667 -1.83301 -117.334 -5.5 -170.001s-8.83398 -102 -15.501 -148c-7.33301 -45.333 -15.166 -86.666 -23.499 -123.999s-18.166 -71.333 -29.499 -102
c-11.333 -30 -23.166 -58.667 -35.499 -86s-25.833 -53.333 -40.5 -78c-14.667 -25.333 -29.834 -50 -45.501 -74s-32.167 -47.333 -49.5 -70s-36.333 -43.834 -57 -63.501s-42.667 -38.167 -66 -55.5c-24 -17.333 -47.5 -32.666 -70.5 -45.999
s-45.833 -24.666 -68.5 -33.999c-45.333 -18.667 -96 -32 -152 -40s-84 -0.666992 -84 22c0 23.333 23.333 38.333 70 45c46 7.33301 92.333 32.666 139 75.999c46 44 88.333 97.333 127 160c19.333 32 37.666 67 54.999 105s34 80.333 50 127c31.333 94.667 54 177 68 247
c14 71.333 18 180 12 326c-3.33301 74 -8.83301 142.833 -16.5 206.5s-17.5 122.834 -29.5 177.501c-25.333 110 -76.666 220.333 -153.999 331c-77.333 110 -167.666 178.667 -270.999 206c-102 26.667 -206.333 20.334 -313 -18.999s-181.667 -84.666 -225 -135.999
c-44.667 -52.667 -82.334 -105.334 -113.001 -158.001c-16 -26.667 -30.833 -53.834 -44.5 -81.501s-26.167 -56.167 -37.5 -85.5c-11.333 -28.667 -21.166 -60.167 -29.499 -94.5s-14.833 -71.833 -19.5 -112.5c-10 -80.667 -12 -169 -6 -265
c5.33301 -96 20.333 -205.333 45 -328c12 -62 25.333 -116.667 40 -164s30.667 -88 48 -122l48.5 -90c15 -26.667 29.167 -50.667 42.5 -72c26.667 -44 57.334 -84.333 92.001 -121c36 -39.333 65.667 -66.666 89 -81.999c24 -17.333 66 -30.333 126 -39
s87.333 -22.667 82 -42c-6 -18.667 -38.667 -23.667 -98 -15c-60 8.66699 -113 24.667 -159 48c-46.667 22.667 -89.334 51.334 -128.001 86.001c-19.333 17.333 -38 35.166 -56 53.499s-35.667 37.5 -53 57.5c-34 40 -68 94 -102 162c-17.333 34 -34.5 72 -51.5 114
s-34.167 88.333 -51.5 139s-31.666 104.834 -42.999 162.501s-19.666 119.167 -24.999 184.5c-12 130.667 -6 257.334 18 380.001c11.333 62 26.666 121 45.999 177s42 110 68 162c52.667 104 102 180 148 228c45.333 48.667 89.666 88.334 132.999 119.001
c41.333 30.667 87.333 54 138 70c50.667 16.667 129.667 30.334 237 41.001zM1107 1733c24.667 -8 48.3369 -17.8311 71.0039 -29.498s44.667 -25.167 66 -40.5c42 -30 86.667 -69.667 134 -119c23.333 -24.667 47.333 -55.834 72 -93.501s50 -82.5 76 -134.5
s48.333 -106 67 -162s34 -115 46 -177c11.333 -62 18.666 -124.333 21.999 -187s2.33301 -127 -3 -193c-12 -130.667 -35 -246.334 -69 -347.001c-17.333 -50.667 -34.333 -97 -51 -139s-33.667 -80 -51 -114s-34.5 -64.5 -51.5 -91.5s-34.167 -50.5 -51.5 -70.5
s-35 -39.167 -53 -57.5s-36.667 -36.166 -56 -53.499c-38 -34 -80.333 -62.667 -127 -86c-47.333 -23.333 -100.666 -39.333 -159.999 -48c-60 -8.66699 -92.333 -3.66699 -97 15c-6 18 23.333 32.667 88 44c63.333 10.667 107.333 24.334 132 41.001
c11.333 8 24.5 18.833 39.5 32.5s31.5 30.167 49.5 49.5c17.333 19.333 33.833 39 49.5 59s30.167 40.667 43.5 62c26 42 56 96 90 162c34 67.333 63.667 162.666 89 285.999c24 122.667 39 232 45 328c2.66699 48 3.33398 94 2.00098 138s-4.33301 86.333 -9 127
c-10 82 -26.333 151 -49 207c-11.333 29.333 -24 57.833 -38 85.5s-28.667 54.834 -44 81.501c-16 26.667 -33.333 53.167 -52 79.5s-39 52.5 -61 78.5c-43.333 51.333 -120.333 96 -231 134s-217 43.667 -319 17c-104 -27.333 -194.667 -96 -272 -206
c-39.333 -56 -71.833 -111.333 -97.5 -166s-44.5 -109.667 -56.5 -165c-12.667 -54.667 -22.5 -113.834 -29.5 -177.501s-12.167 -132.5 -15.5 -206.5c-6 -146 -2 -254.667 12 -326c7.33301 -36 16.5 -74.5 27.5 -115.5s24.5 -84.833 40.5 -131.5
c15.333 -46.667 31.666 -89 48.999 -127s35.666 -73 54.999 -105c38 -63.333 80.333 -116.666 127 -159.999c45.333 -43.333 92 -68.666 140 -75.999c46.667 -7.33301 70 -22.333 70 -45s-28 -30 -84 -22c-28 4 -54.667 9.33301 -80 16s-49.333 14.667 -72 24
s-45.667 20.666 -69 33.999s-47 28.666 -71 45.999c-47.333 33.333 -88.333 73 -123 119c-17.333 22.667 -33.833 46 -49.5 70s-30.834 48.667 -45.501 74c-14.667 24.667 -28.334 50.667 -41.001 78s-24.334 56 -35.001 86c-11.333 30.667 -21.333 64.667 -30 102
s-16.334 78.666 -23.001 123.999c-7.33301 46 -12.5 95.333 -15.5 148s-4.5 109.334 -4.5 170.001c0 122 4 216.667 12 284c8 66.667 25 140.667 51 222s65.667 160 119 236c26.667 38.667 51.667 72 75 100s45 51.333 65 70c40.667 38 91.334 73 152.001 105
c30.667 16.667 59.5 30.334 86.5 41.001s52.167 18.667 75.5 24s52.5 9.66602 87.5 12.999s76.167 3.33301 123.5 0c54.667 -3.33301 101.5 -8.83301 140.5 -16.5s71.167 -15.834 96.5 -24.501z" />
    <glyph glyph-name="one" unicode="1" horiz-adv-x="810" 
d="M93 1757l530.001 0.000976562v-2159l-203 269v1629c0 53.333 -26.333 101.666 -79 144.999s-135.334 82 -248.001 116z" />
    <glyph glyph-name="two" unicode="2" horiz-adv-x="1672" 
d="M1605 -81l-47.001 -78.9951c-15.333 -26.667 -29.666 -54.334 -42.999 -83.001c-10 -20.667 -20 -42.834 -30 -66.501l-33 -75.5c-8 -13.333 -17.333 -20 -28 -20h-1220h-153l183 120c140.667 93.333 266 189.166 376 287.499s206.333 201.166 289 308.499
c58 75.333 106.5 145.833 145.5 211.5s69.167 127.167 90.5 184.5c41.333 108 62 229.667 62 365c0 147.333 -36.667 262.333 -110 345c-84 95.333 -183 149 -297 161c-56.667 6 -106.834 9.16699 -150.501 9.5s-81.5 -2.5 -113.5 -8.5
c-63.333 -12 -147.666 -58.333 -252.999 -139c-106 -80.667 -115.667 -60.667 -29 60c54.667 76.667 128.334 139.667 221.001 189c94 50 223 75 387 75c170.667 0 307.667 -51.667 411 -155c98.667 -98.667 148 -236.667 148 -414c0 -59.333 -5.83301 -118.5 -17.5 -177.5
s-29.834 -118.833 -54.501 -179.5c-46 -114.667 -98.5 -219.5 -157.5 -314.5s-124.5 -181.833 -196.5 -260.5c-160 -175.333 -321 -323 -483 -443c-10.667 -8.66699 -16 -15.667 -16 -21c0 -12 12.667 -18 38 -18h398c238.667 0 425 26 559 78
c15.333 2 29.333 5.66699 42 11s24.667 11.666 36 18.999l23.5 15.5z" />
    <glyph glyph-name="three" unicode="3" horiz-adv-x="1382" 
d="M560 -273c82.667 -15.333 150.667 -13.3301 204 6.00293c54.667 19.333 105 58 151 116c46.667 58.667 79 134.334 97 227.001c18 93.333 23 172.666 15 237.999s-27.667 125.666 -59 180.999c-15.333 28 -30.5 52.667 -45.5 74s-29.167 39.666 -42.5 54.999
c-26.667 29.333 -74.667 49.666 -144 60.999c-34.667 5.33301 -67.667 9.5 -99 12.5s-61 4.5 -89 4.5c-55.333 0 -104 15 -146 45s-49 53 -21 69c14.667 8 33.167 15.5 55.5 22.5s48.5 14.167 78.5 21.5c31.333 7.33301 62.5 17.666 93.5 30.999s62.5 29.666 94.5 48.999
s61.167 39.5 87.5 60.5s50.166 42.167 71.499 63.5c42 44 78 116.667 108 218s14.333 176 -47 224s-149 65 -263 51c-57.333 -7.33301 -108.333 -17.166 -153 -29.499s-83.334 -28.166 -116.001 -47.499l-96 -58l-95 -58c-63.333 -39.333 -88 -39.333 -74 0
c14.667 40.667 73 112 175 214c102.667 102.667 223.667 157.667 363 165c70 3.33301 133.333 1.33301 190 -6s108 -19.666 154 -36.999c91.333 -35.333 153 -115.666 185 -240.999c32 -126 7 -241.333 -75 -346c-82 -106 -145.667 -174.667 -191 -206
c-44.667 -30.667 -22 -63 68 -97c90.667 -34 163.334 -104 218.001 -210s77.667 -211.333 69 -316c-9.33301 -104.667 -53.333 -239.334 -132 -404.001c-79.333 -166 -227.666 -255 -444.999 -267c-218.667 -12 -395 51 -529 189
c-67.333 69.333 -98.5 110.666 -93.5 123.999s45.833 -2 122.5 -46c152.667 -86.667 271 -137.667 355 -153z" />
    <glyph glyph-name="four" unicode="4" horiz-adv-x="1629" 
d="M1471 446l-76.001 -81.001c-18.667 -19.333 -31 -31.333 -37 -36c-21.333 3.33301 -44.166 5.16602 -68.499 5.49902s-51.5 -0.166992 -81.5 -1.5c-17.333 -1.33301 -26 -10 -26 -26c0 -3.33301 -2.83301 -27.333 -8.5 -72l-25.5 -198
c-22 -172.667 -6.66699 -279.667 46 -321c-20 -31.333 -58.333 -59.333 -115 -84c-70.667 -10.667 -110 -28.667 -118 -54c-12.667 8 -14.667 128.333 -6 361c10 230.667 15 350.334 15 359.001c0 21.333 -9.66699 32 -29 32c-572.667 0 -864.667 2.33301 -876 7l61 74
c24 28.667 81.833 102.834 173.5 222.501l380.5 492.5c326 416.667 504 614.667 534 594c-4 -20 -6 -42.667 -6 -68c0 -3.33301 -0.833008 -51.166 -2.5 -143.499l-7.5 -413.5l-7.5 -416c-1.66699 -94 -2.5 -143.667 -2.5 -149c0 -22.667 7.66699 -32.334 23 -29.001
c5.33301 0 18.833 0.5 40.5 1.5s51.5 2.83301 89.5 5.5c78 4.66699 135 12.667 171 24c36.667 10.667 23 -18 -41 -86zM1011 1370c0 29.333 -13.667 27 -41 -7c-10 -10.667 -36.167 -41.667 -78.5 -93l-175.5 -218l-402 -510c-10.667 -14.667 -15.667 -23.667 -15 -27
c1.33301 -5.33301 8.33301 -8 21 -8h637c16 0 25.333 2.33301 28 7c4 4.66699 6 13 6 25c0 5.33301 0.833008 43 2.5 113l7.5 308l7.5 305c1.66699 68 2.5 103 2.5 105z" />
    <glyph glyph-name="five" unicode="5" horiz-adv-x="1454" 
d="M1221 1810c-1.33301 -32.667 -1.99414 -59.1689 -1.99414 -79.502s0.333008 -34.833 1 -43.5c2 -16 -1.66699 -33.667 -11 -53c-8 -18.667 -21.667 -31.334 -41 -38.001c-9.33301 -3.33301 -18 -6.16602 -26 -8.49902s-15.667 -4.16602 -23 -5.49902
c-13.333 -3.33301 -255 -3.33301 -725 0v-677c154 0.666992 280.667 -3.66602 380 -12.999s172.666 -23 219.999 -41c93.333 -36 174.666 -92 243.999 -168c68.667 -76 111.667 -159.667 129 -251c17.333 -92.667 15.666 -183.667 -5.00098 -273
c-20 -90 -49 -160.667 -87 -212c-37.333 -51.333 -89.333 -107.333 -156 -168c-66.667 -61.333 -156.334 -109 -269.001 -143c-56.667 -17.333 -114.667 -25.833 -174 -25.5s-121.333 9.83301 -186 28.5s-121.834 38 -171.501 58s-92.834 41.333 -129.501 64
c-72 44.667 -110 76.667 -114 96s-1.33301 31 8 35c10.667 4 21.667 3.33301 33 -2c12 -6 26.667 -15.667 44 -29c17.333 -12.667 44.666 -30.334 81.999 -53.001c38 -22 82 -45 132 -69c52 -24 117.667 -38 197 -42c40.667 -2 76.5 -1.83301 107.5 0.5
s57.167 6.5 78.5 12.5c42.667 12 87.334 32 134.001 60c46 28 93 85 141 171c49.333 85.333 76 168 80 248c4.66699 78.667 0 153.334 -14 224.001c-14 68.667 -46 128.667 -96 180c-48.667 50.667 -107.667 93 -177 127c-67.333 34 -174.666 49.333 -321.999 46
c-146 -3.33301 -224.667 -1.33301 -236 6c-10.667 6.66699 -17.667 17 -21 31c-2.66699 12.667 -3 93.334 -1 242.001c1.33301 74 2.16602 143.667 2.49902 209s0.833008 127.333 1.5 186s1.16699 105.5 1.5 140.5s0.5 59.167 0.5 72.5c0.666992 26 6.66699 42 18 48
c11.333 5.33301 159 3.66602 443 -5.00098c284 -9.33301 453.667 28.667 509 114z" />
    <glyph glyph-name="six" unicode="6" horiz-adv-x="1505" 
d="M1140 1802l-192.004 -128.992c-25.333 -18.667 -52.666 -42.167 -81.999 -70.5s-61 -62.5 -95 -102.5l-97.5 -122.5c-31.667 -41.667 -62.5 -85.167 -92.5 -130.5c-30 -44.667 -56.667 -86.334 -80 -125.001s-44 -74.334 -62 -107.001c-35.333 -66 -58 -124.667 -68 -176
c-8.66699 -50.667 -19.667 -138.334 -33 -263.001c-12 -123.333 -9 -238.666 9 -345.999s59.333 -198.333 124 -273c66 -76 131.333 -130.333 196 -163s129.334 -45.334 194.001 -38.001c64 6.66699 125 23.667 183 51c59.333 27.333 107 81.333 143 162
c36.667 79.333 53 161 49 245c-4 83.333 -22.333 162.666 -55 237.999c-32 76.667 -77 134.667 -135 174c-56.667 39.333 -111.667 65 -165 77c-52 12 -114.333 16 -187 12c-70.667 -4 -134 -8 -190 -12c-53.333 -4 -79 2 -77 18c2.66699 16.667 12.667 31.667 30 45
s84 34.666 200 63.999c116 28.667 217.667 32.667 305 12c89.333 -21.333 173.666 -63.666 252.999 -126.999c82 -64.667 138.667 -145.334 170 -242.001c32.667 -97.333 44 -186.333 34 -267c-9.33301 -80.667 -31.666 -157.667 -66.999 -231
c-34.667 -74.667 -81.667 -139 -141 -193c-58.667 -54.667 -121.667 -93.334 -189 -116.001c-68 -23.333 -154.333 -36.333 -259 -39c-102.667 -2.66699 -187.667 13.666 -255 48.999c-32.667 17.333 -64.667 37.666 -96 60.999s-62.666 49.333 -93.999 78
c-60 56 -112.333 124.667 -157 206c-42.667 80 -67 207 -73 381c-4.66699 172 15 319.333 59 442c44.667 121.333 108.334 239.333 191.001 354c42 58 87.667 115.167 137 171.5s103 112.833 161 169.5c115.333 112 283.333 199.667 504 263z" />
    <glyph glyph-name="seven" unicode="7" horiz-adv-x="1591" 
d="M1160 1285c-58.667 -85.333 -114.5 -175.17 -167.5 -269.503s-104.5 -193.166 -154.5 -296.499c-102.667 -208.667 -172 -385 -208 -529c-34 -133.333 -51 -256.333 -51 -369c0 -34.667 3 -112 9 -232l-162 262c14 268.667 62 489.334 144 662.001
c51.333 110 111.333 224 180 342s148.667 240 240 366l108 143.5l123 163.5c16.667 23.333 25 39.333 25 48c0 10 -10 13.667 -30 11c-2.66699 0 -6.66699 -0.666992 -12 -2c-162 -34 -364 -51 -606 -51c-186.667 0 -349 21.667 -487 65l211 206c136 -36 315 -54 537 -54
c35.333 0 78 1.83301 128 5.5s108.333 9.5 175 17.5c53.333 6.66699 109.333 12.834 168 18.501s120.667 11.167 186 16.5z" />
    <glyph glyph-name="eight" unicode="8" horiz-adv-x="1629" 
d="M440 -276c-78 68.667 -135.665 137 -172.998 205c-36 67.333 -55 159 -57 275c-1.33301 118 25 233.667 79 347c54 114 93 172.667 117 176c24.667 2.66699 22 -58.666 -8 -183.999s-40 -231.333 -30 -318s32.667 -168.334 68 -245.001
c36 -77.333 84.667 -136.333 146 -177c32 -20.667 63.5 -37 94.5 -49s62.167 -20.667 93.5 -26c32 -5.33301 62.333 -8 91 -8s56 2 82 6c27.333 4 53.5 9.66699 78.5 17s49.167 16 72.5 26c47.333 20 85.333 55.333 114 106c14 25.333 26.333 50.666 37 75.999
s19.334 51 26.001 77c14 52.667 19 106 15 160c-4 56 -22.333 124 -55 204c-32 81.333 -66 137 -102 167c-34 29.333 -72 51.666 -114 66.999c-41.333 15.333 -101.333 28.333 -180 39l-195 27c-25.333 3.33301 -47.333 6.83301 -66 10.5s-33.667 7.83398 -45 12.501
c-22.667 8.66699 -28.334 37.667 -17.001 87c12 48 36 59.667 72 35c18.667 -12.667 44.167 -24 76.5 -34s71.5 -19.333 117.5 -28c91.333 -16.667 173.666 -23 246.999 -19c72 4 153.333 -30.333 244 -103c91.333 -73.333 147 -193.666 167 -360.999
c21.333 -167.333 8 -292.333 -40 -375c-46.667 -82.667 -104.334 -151 -173.001 -205c-67.333 -52.667 -146.333 -86 -237 -100c-89.333 -14 -183 -16 -281 -6s-186.333 49.333 -265 118zM1212 1715c80.667 -66 139.668 -133.334 177.001 -202.001
c36.667 -66.667 55.667 -159 57 -277c2 -117.333 -26 -231.333 -84 -342c-57.333 -111.333 -98.333 -168.333 -123 -171c-24 -2.66699 -19.333 57 14 179c33.333 121.333 45 226 35 314c-10 86 -32.667 168 -68 246c-34.667 77.333 -83.667 136.666 -147 177.999
c-31.333 20.667 -62.333 37 -93 49s-62 20.667 -94 26c-31.333 5.33301 -61.333 8 -90 8s-56.667 -2 -84 -6c-26 -4 -51.667 -9.5 -77 -16.5s-50 -15.833 -74 -26.5c-47.333 -20 -85.333 -55.333 -114 -106c-28 -50 -49 -101.667 -63 -155
c-13.333 -54 -18 -107.667 -14 -161c4 -52.667 22.333 -120.334 55 -203.001c33.333 -81.333 67.333 -137 102 -167c36.667 -30.667 92.334 -58.667 167.001 -84c76.667 -26 136.667 -39 180 -39c22 0 44.5 -0.166992 67.5 -0.5s47.167 -0.833008 72.5 -1.5
s46.166 -2.16699 62.499 -4.5s28.166 -5.16602 35.499 -8.49902c16 -7.33301 24.333 -16.333 25 -27c2 -10 -28 -22.667 -90 -38c-59.333 -14.667 -127.333 -24 -204 -28c-72.667 -4 -144.667 -0.333008 -216 11c-70 11.333 -150.333 53.333 -241 126
c-90 72.667 -145.667 192.667 -167 360c-20 166.667 -6.33301 292.334 41 377.001c48 84.667 105.667 153.334 173 206.001s146 86 236 100c45.333 7.33301 91 11 137 11s93 -3 141 -9c96 -12 184.333 -51.333 265 -118z" />
    <glyph glyph-name="nine" unicode="9" horiz-adv-x="1600" 
d="M414 -374l104.999 68.9922c32 21.333 60.667 41.333 86 60c26 18.667 53.833 42.167 83.5 70.5s61.167 62.5 94.5 102.5c34 39.333 66.5 79.833 97.5 121.5s61.5 84.834 91.5 129.501c60.667 91.333 108.334 169 143.001 233c35.333 64 57.666 122.333 66.999 175
c10 51.333 21 139 33 263c12.667 122.667 10 238.334 -8 347.001s-59.667 200.334 -125 275.001c-63.333 75.333 -128.333 129.666 -195 162.999c-64 32.667 -128.667 45.334 -194 38.001c-63.333 -6.66699 -124.666 -23.667 -183.999 -51
c-58 -26.667 -105.333 -81 -142 -163c-36.667 -82.667 -53 -164.667 -49 -246c2 -42 7.66699 -82.667 17 -122s22 -78.333 38 -117c33.333 -76 78 -133.667 134 -173c29.333 -19.333 57.666 -35.666 84.999 -48.999s54 -23 80 -29c54 -12 116.667 -16 188 -12
c36 2 69.667 4.16699 101 6.5l88 6.5c54.667 4 80.667 -2.33301 78 -19c-2 -15.333 -12.333 -30.333 -31 -45c-17.333 -13.333 -83.666 -34.333 -198.999 -63c-115.333 -29.333 -217.333 -33.333 -306 -12c-44 10.667 -87 26.334 -129 47.001s-83.333 47 -124 79
c-79.333 63.333 -135.666 144.333 -168.999 243c-32 98.667 -43.667 187.667 -35 267c10 78.667 32.667 156 68 232c36.667 76.667 83.334 141.334 140.001 194.001c30 28 60.667 51.5 92 70.5s64 34.167 98 45.5c69.333 23.333 155.666 36.333 258.999 39
c104 2.66699 189 -13.666 255 -48.999c33.333 -17.333 65.666 -37.666 96.999 -60.999s62.333 -49.333 93 -78c62 -56.667 114.333 -126 157 -208c43.333 -80.667 67.666 -207.667 72.999 -381c6 -172 -13.667 -319.333 -59 -442c-44 -121.333 -108 -239.666 -192 -354.999
c-41.333 -57.333 -86.666 -114 -135.999 -170s-103.333 -112.333 -162 -169c-115.333 -112.667 -283 -200.334 -503 -263.001z" />
    <glyph glyph-name="colon" unicode=":" horiz-adv-x="422" 
d="M291 431c0 -61.333 -30.667 -92 -92 -92c-53.333 0 -80 27.333 -80 82c0 62.667 34 94 102 94c46.667 0 70 -28 70 -84zM303 -313c0 -57.333 -30 -86 -90 -86c-54.667 0 -82 25.333 -82 76c0 62.667 35 94 105 94c20 0 36.667 -9 50 -27
c11.333 -15.333 17 -34.333 17 -57z" />
    <glyph glyph-name="semicolon" unicode=";" horiz-adv-x="399" 
d="M299 451c0 -57.333 -31 -86 -93 -86c-52.667 0 -79 25.333 -79 76c0 62.667 34 94 102 94c46.667 0 70 -28 70 -84zM327 -418c0 -91.333 -45.001 -170.334 -135.001 -237.001c-19.333 -14 -31.666 -21 -36.999 -21c-8 0 -12 6 -12 18c0 9.33301 7.66699 21.666 23 36.999
c47.333 48.667 71 102.667 71 162c0 26 -6 48.667 -18 68c-8 10.667 -21 16 -39 16c-28 0 -52.333 7.66699 -73 23c-22.667 16.667 -34 38.334 -34 65.001c0 41.333 30 62 90 62c46 0 85 -19 117 -57c31.333 -37.333 47 -82.666 47 -135.999z" />
    <glyph glyph-name="less" unicode="&#x3c;" horiz-adv-x="578" 
d="M512 217c-2 -5.33301 -5.99805 -13.332 -11.998 -23.999c-10 -6.66699 -17 -10.334 -21 -11.001c-5.33301 0 -16.333 6.33301 -33 19c-19.333 14 -88.666 77.333 -207.999 190l-152 137c-18 16 -27 27 -27 33c0 6.66699 4.33301 14.334 13 23.001
c-11.333 8 -17 16.667 -17 26c0 11.333 6.33301 22.333 19 33c18 23.333 40.5 50 67.5 80l94.5 102l102.5 108.5c27.667 29.667 48.5 53.167 62.5 70.5c13.333 17.333 23.666 26 30.999 26c5.33301 -2 13.666 -6 24.999 -12c8 -6.66699 12.333 -12.334 13 -17.001
c-1.33301 -3.33301 -8.33301 -15.333 -21 -36c-6.66699 -8 -23.834 -31.333 -51.501 -70l-116.5 -162l-42 -55l-57 -74l-12 -16l16 -13c17.333 -14.667 38.5 -34.834 63.5 -60.501s53.5 -58.5 85.5 -98.5c66.667 -84 116.667 -140 150 -168
c18 -15.333 27 -25.666 27 -30.999z" />
    <glyph glyph-name="equal" unicode="=" horiz-adv-x="700" 
d="M632 709c-7.33301 -14.667 -16.332 -22.332 -26.999 -22.999c-2 -0.666992 -83.333 -5 -244 -13c-80.667 -4 -142.5 -6.83301 -185.5 -8.5s-67.833 -2.5 -74.5 -2.5h-30c-8 2 -8 12.667 0 32l5 11.5c1.33301 3 2.66602 5.16699 3.99902 6.5c4 4 9.66699 6.33301 17 7
c0.666992 0 21.834 1 63.501 3s104.5 4.66699 188.5 8c82.667 3.33301 145.167 5.66602 187.5 6.99902s65.166 2 68.499 2c14.667 0 23.667 -0.666992 27 -2c4.66699 -2 4.66699 -11.333 0 -28zM632.001 483.002c-6 -14 -15.002 -21.332 -27.002 -21.999
c-4 -1.33301 -83.667 -6 -239 -14c-78.667 -4 -138.667 -6.83301 -180 -8.5s-64.666 -2.5 -69.999 -2.5h-45c-8 2.66699 -8 13.667 0 33l5 11.5c1.33301 3 2.66602 5.16699 3.99902 6.5c4 4 9.66699 6.33301 17 7c-0.666992 0 18.5 0.833008 57.5 2.5l176.5 7.5
c78.667 3.33301 140.834 5.83301 186.501 7.5s74.834 2.5 87.501 2.5s21.667 -0.666992 27 -2c6.66699 -2.66699 6.66699 -12.334 0 -29.001z" />
    <glyph glyph-name="greater" unicode="&#x3e;" horiz-adv-x="578" 
d="M530 610c0 -6.66699 -5.33398 -15.332 -16.001 -25.999c8 -9.33301 12 -17 12 -23s-8.66699 -17 -26 -33l-157.5 -145.5l-203.5 -181.5c-15.333 -13.333 -26.333 -19.666 -33 -18.999c-6.66699 0 -13.667 3.66699 -21 11s-11 15.333 -11 24
c0 7.33301 8.66699 17.666 26 30.999c15.333 12 35.5 32.167 60.5 60.5l91.5 108.5c34 42 63.333 76 88 102s44.334 44.667 59.001 56l17 13l-13 16c-35.333 43.333 -74.333 95.333 -117 156l-149 205c-12 16 -18 26.667 -18 32c0 7.33301 3.66699 14.666 11 21.999
s15.333 11 24 11s18.667 -8.66699 30 -26l147.5 -159.5l180.5 -201.5c12 -11.333 18 -22.333 18 -33z" />
    <glyph glyph-name="question" unicode="?" horiz-adv-x="716" 
d="M708 1305c0 -74 -9.99902 -149.001 -29.999 -225.001s-51 -153.333 -93 -232c-25.333 -47.333 -127.333 -193.333 -306 -438c-9.33301 -12.667 -14 -27 -14 -43s2.66699 -32 8 -48c6.66699 -18.667 13.667 -35.5 21 -50.5s14.666 -28.833 21.999 -41.5
c14.667 -24.667 36.334 -38 65.001 -40c10 -5.33301 15 -14 15 -26c0 -6 -2 -15.333 -6 -28c-1.33301 -2.66699 -4.33301 -7.33398 -9 -14.001s-11.334 -15.667 -20.001 -27l-51 -46c-16.667 -15.333 -27.667 -23 -33 -23c-8 0 -19.667 11.667 -35 35
c-32 48.667 -56.667 108.667 -74 180c-6.66699 27.333 -10 49.333 -10 66c0 12.667 1.33301 23.334 4 32.001s6.33398 16.334 11.001 23.001l64 90l26 38c128 197.333 203.667 324.333 227 381c52 122.667 78 261.334 78 416.001c0 45.333 -8.33301 94.333 -25 147
c-19.333 62.667 -45.666 111 -78.999 145c-60 61.333 -121.333 92 -184 92c-2.66699 0 -6.16699 -0.166992 -10.5 -0.5s-9.83301 -0.833008 -16.5 -1.5s-11.834 -1 -15.501 -1h-7.5c-12 0 -18 7 -18 21c0 8 4 21 12 39c18 39.333 32.333 64.333 43 75
c5.33301 11.333 13.666 18.666 24.999 21.999c22.667 6 50 9 82 9c106 0 191.333 -59.333 256 -178c52 -95.333 78 -211.333 78 -348zM377.001 -268.001c0 -94.667 -32.667 -142 -98 -142c-45.333 0 -68 37.667 -68 113c0 88 39 132 117 132c32.667 0 49 -34.333 49 -103z
" />
    <glyph glyph-name="at" unicode="@" horiz-adv-x="1507" 
d="M1419 776c0 -11.333 -0.331055 -22.499 -0.998047 -33.499s-1.66699 -22.167 -3 -33.5c-20.667 -179.333 -117 -288 -289 -326c-97.333 -22 -172.333 -26.667 -225 -14c-70 17.333 -110.333 64.333 -121 141c-2 10.667 -6 12 -12 4c-24 -32 -58.667 -61.333 -104 -88
c-52 -30 -100 -45 -144 -45c-39.333 0 -66 6.66699 -80 20c-39.333 35.333 -59 67.666 -59 96.999c0 4 0.666992 9.33301 2 16c4 21.333 10.5 49.5 19.5 84.5s20.833 76.5 35.5 124.5c32 107.333 54.667 168.666 68 183.999c14 16.667 34 31.834 60 45.501s58 26.5 96 38.5
c18 5.33301 44.5 12.166 79.5 20.499s78.5 17.833 130.5 28.5c6.66699 0.666992 11 7 13 19c0 5.33301 5.33301 8 16 8c4 0 9.16699 -0.333008 15.5 -1s14.166 -1.66699 23.499 -3c4.66699 0 10 -0.166992 16 -0.5s13 -0.833008 21 -1.5c10 -0.666992 14 -4.66699 12 -12
l-96 -416c-2 -8.66699 -3.33301 -16.834 -4 -24.501s-1 -15.167 -1 -22.5c0 -28 10.667 -59.333 32 -94c4.66699 -7.33301 10.5 -15.666 17.5 -24.999s15.5 -19.666 25.5 -30.999c20 -22 32.667 -33 38 -33c187.333 0 294.666 102 321.999 306
c1.33301 10.667 2.33301 21 3 31s1 20 1 30c0 161.333 -55.667 298.333 -167 411c-115.333 115.333 -259.666 173 -432.999 173c-130.667 0 -258.334 -67 -383.001 -201c-122.667 -130.667 -184 -295.667 -184 -495c0 -159.333 45 -292 135 -398
c107.333 -125.333 256 -188 446 -188c90.667 0 199.334 35.333 326.001 106c5.33301 2 11.333 1.33301 18 -2c10.667 -6 17.667 -12.667 21 -20c3.33301 -8.66699 -1.33398 -17 -14.001 -25c-104 -72 -224.333 -108 -361 -108c-202 0 -367 64.333 -495 193
c-127.333 128 -191 293.667 -191 497c0 187.333 66.667 347.666 200 480.999c134 134 294.667 201 482 201c216.667 0 387.667 -59 513 -177c119.333 -113.333 179 -260.666 179 -441.999zM866.002 989.001c2 10 -0.667969 14.999 -8.00098 14.999
c-37.333 0 -91.333 -15.333 -162 -46c-29.333 -13.333 -60 -53.333 -92 -120c-36 -75.333 -64 -166.333 -84 -273c-7.33301 -40.667 -3.33301 -68.667 12 -84c12 -12 35.333 -18 70 -18c44.667 0 93.334 20.333 146.001 61c14.667 11.333 24 25 28 41l13.5 62l32.5 152
l32 151c7.33301 34.667 11.333 54.334 12 59.001z" />
    <glyph glyph-name="A" unicode="A" horiz-adv-x="1421" 
d="M401 534l-5 -19l-1 -6v-4l2 -4l3 -4l5 -3h598l4 4v9l-2 11l-228 844l-16 29l-16 14l-19 2l-18 -2l-18 -11l-17 -33zM467 1779h327l18 -6l17 -12l10 -18l4 -16l679 -2158l-7 3l-30 22l-18 15l-243 224l-160 541l-5 25l-5 8l-4 7l-8 2l-8 2l-30 4l-652 -1h-8l-5 -5l-1 -5
l-3 -8l-213 -743l-21 -57l-11 -10l-9 -3l-9 -2h-9l-9 1l-15 7l-8 7l-7 11l-2 8v9l3 14l1 5l1 5l557 1778l13 53l12 104l-7 64l-23 35l-28 23l-24 11l-24 6l-26 6l-35 7l-34 1l13 11l22 16l10 5z" />
    <glyph glyph-name="B" unicode="B" horiz-adv-x="1612" 
d="M254 1776h-236c152 -30.667 230.667 -97 236 -199v199zM502 894c-6.66699 -100.667 33.668 -154.666 121.001 -161.999c44 -3.33301 83.667 -5.33301 119 -6s66.666 0.666016 93.999 3.99902c56 6 122.333 24.333 199 55s131.667 63 165 97
c32 33.333 53.667 79.333 65 138c5.33301 30 8.5 61.833 9.5 95.5s-0.166992 70.167 -3.5 109.5c-6 77.333 -30.667 164 -74 260c-42.667 94.667 -117 155 -223 181s-209 34.667 -309 26c-100.667 -8.66699 -153 -33.667 -157 -75s-6 -282.333 -6 -723zM253.002 1776
c496.667 2.66699 748.668 2.66406 756.001 -0.00292969l30.5 -12.5l72.5 -29.5c61.333 -24.667 118.333 -68.667 171 -132c52.667 -64.667 90.667 -122 114 -172s39.666 -117 48.999 -201c8.66699 -82.667 -1.33301 -163 -30 -241
c-28.667 -77.333 -67.667 -134.666 -117 -171.999c-48.667 -36 -70.667 -75.333 -66 -118c5.33301 -42 37 -79.333 95 -112c58 -32 116.667 -85 176 -159c58.667 -72.667 94 -163.667 106 -273c12 -108 -11 -206.333 -69 -295s-131.333 -154 -220 -196
c-88 -42 -220 -62.333 -396 -61c-175.333 0.666992 -272.333 3.66699 -291 9s-23.334 14.333 -14.001 27c8.66699 12 41.334 21 98.001 27c28 3.33301 65.667 5.66602 113 6.99902s105 2.33301 173 3c134.667 0.666992 231.334 34 290.001 100s91.667 150 99 252
c7.33301 103.333 -2 197 -28 281s-72.667 156.333 -140 217c-67.333 60 -123.666 92 -168.999 96c-23.333 2 -57.333 3.83301 -102 5.5s-101 2.83398 -169 3.50098c-134.667 0.666992 -218.334 -16.666 -251.001 -51.999s-46.334 -267.666 -41.001 -696.999l-242 -277
l2 2172v0z" />
    <glyph glyph-name="C" unicode="C" horiz-adv-x="1979" 
d="M1980 -108c-78.667 -86.667 -209.997 -163.666 -393.997 -230.999c-143.333 -52.667 -324.333 -79 -543 -79c-185.333 0 -332 19 -440 57c-111.333 39.333 -219.333 110.666 -324 213.999c-173.333 170 -260 430 -260 780c0 195.333 49.667 390 149 584
c80 156.667 202.333 289.334 367 398.001c213.333 140.667 488 211 824 211c63.333 0 123.5 -1.33301 180.5 -4s111.5 -6.66699 163.5 -12c122 -13.333 202 -34.333 240 -63l-44 -309c-32.667 59.333 -88.334 116.333 -167.001 171c-111.333 56.667 -277 85 -497 85
c-282 0 -506.333 -87.667 -673 -263c-188.667 -197.333 -283 -445.666 -283 -744.999c0 -327.333 99.667 -583 299 -767c50.667 -46.667 101.167 -85.834 151.5 -117.501s101.5 -55.834 153.5 -72.501c92 -30 215.667 -45 371 -45c114.667 0 226.334 25.667 335.001 77
c109.333 52 189.666 118.667 240.999 200c29.333 46 50.666 99.667 63.999 161c7.33301 -22.667 18.166 -53.167 32.499 -91.5z" />
    <glyph glyph-name="D" unicode="D" horiz-adv-x="2130" 
d="M36 1772l1348 -0.00195312c100.667 -30 190.167 -73.667 268.5 -131s144.333 -128.166 198 -212.499s94.334 -182.5 122.001 -294.5s41.167 -237.667 40.5 -377c-0.666992 -131.333 -14.834 -251.166 -42.501 -359.499s-67.5 -205.833 -119.5 -292.5
s-115.333 -162.167 -190 -226.5s-159.667 -117.833 -255 -160.5c-62.667 -28 -153.667 -47.833 -273 -59.5s-269 -14.167 -449 -7.5c-52 21.333 -54.667 41.666 -8 60.999l104 1l264 13c154.667 8 298.667 73.667 432 197c91.333 102 162 204.833 212 308.5
s81.667 209.167 95 316.5c13.333 110.667 13.166 224 -0.500977 340s-42.834 236 -87.501 360c-105.333 224.667 -259.333 354.334 -462 389.001h-567c-38 5.33301 -63.833 -8 -77.5 -40s-20.5 -83.667 -20.5 -155v-1562l-249 -257v1857c-18 134 -112.333 231.333 -283 292z
" />
    <glyph glyph-name="E" unicode="E" horiz-adv-x="1654" 
d="M72 1755h1518c46.667 -142.667 56.667 -315.334 30 -518.001h-44l-7 27c-28 108.667 -76.667 194.334 -146 257.001s-164.666 101 -285.999 115h-407c-60 0 -90 -100.333 -90 -301v-583h742v-93h-742v-835c0 -106.667 65 -162 195 -166c129.333 -4 255 11.667 377 47
s217.333 95.333 286 180c34.667 42 64.667 81.167 90 117.5s45.666 70.5 60.999 102.5c31.333 64 57 96.667 77 98c20.667 0.666992 35 -14.333 43 -45c7.33301 -30 -1 -81.333 -25 -154c-12 -36 -26.5 -87.5 -43.5 -154.5s-36.167 -150.5 -57.5 -250.5l-1617 -1
c238 -2 357 135.333 357 412v1484c0 122 -103.667 209 -311 261z" />
    <glyph glyph-name="F" unicode="F" horiz-adv-x="1430" 
d="M280 1743l1207 -1c46.667 -142.667 56.667 -315.334 30 -518.001h-44l-7 27c-28 108.667 -76.667 194.334 -146 257.001s-164.666 101 -285.999 115h-407c-32 -8 -55 -36.833 -69 -86.5s-21 -121.167 -21 -214.5v-563h272v-143h-272v-791l-259 -235zM1116 969
l0.00195312 -288.997h-308v78c21.333 -0.666992 39 -0.833984 53 -0.500977s24 1.16602 30 2.49902c13.333 3.33301 35.666 17.666 66.999 42.999c31.333 26 52.333 52.333 63 79c9.33301 24.667 15.666 53.667 18.999 87h76zM1039 404.003
c-3.33301 33.333 -9.66699 62.334 -19 87.001c-10 26 -31 52 -63 78c-32.667 26.667 -55 41.334 -67 44.001c-6 1.33301 -16 2.16602 -30 2.49902s-31.667 0.166016 -53 -0.500977v78h308v-289h-76zM280 1482c-4.66699 132.667 -90 219.667 -256 261h256v-261z" />
    <glyph glyph-name="G" unicode="G" horiz-adv-x="1834" 
d="M1888 1800c5.33301 -324.667 -0.334961 -469.997 -17.002 -435.997l-22.5 45c-7 13.333 -13.833 24.666 -20.5 33.999s-15.5 19.166 -26.5 29.499s-24.833 21.166 -41.5 32.499c-33.333 22 -76.666 41 -129.999 57c-26.667 8 -56.167 15.667 -88.5 23
s-67.5 14.333 -105.5 21s-77 11 -117 13s-82 2.33301 -126 1c-87.333 -3.33301 -169.333 -12.333 -246 -27s-147.334 -42 -212.001 -82c-64 -39.333 -132 -97 -204 -173s-126.333 -159.333 -163 -250c-36.667 -90 -62 -186.333 -76 -289s-15.667 -198 -5 -286
s27.334 -171.333 50.001 -250c11.333 -38.667 25.166 -75.667 41.499 -111s36.166 -69 59.499 -101c46.667 -64 91.334 -116.333 134.001 -157c22 -21.333 42 -39.5 60 -54.5s34.333 -27.5 49 -37.5c14.667 -10.667 32.667 -21.5 54 -32.5s46 -22.833 74 -35.5
c56.667 -25.333 116.667 -39.333 180 -42c32 -1.33301 64.167 -2.33301 96.5 -3s65.5 -1 99.5 -1s64.833 0.333008 92.5 1s52.5 1.66699 74.5 3c44 2.66699 81 9.66699 111 21c28.667 10.667 60 29.334 94 56.001c32.667 26 52 53.333 58 82
c3.33301 14.667 5.83301 32.167 7.5 52.5s2.83398 44.166 3.50098 71.499c0.666992 26 1.16699 53.333 1.5 82s0.5 58.334 0.5 89.001c0 62 -2 110.667 -6 146c-4 36 -5 65.667 -3 89s-24.667 50.333 -80 81s-132.333 63.667 -231 99h427
c51.333 0 89.666 -4.83301 114.999 -14.5s38 -28.5 38 -56.5s0.666992 -74.5 2 -139.5s3.33301 -150.167 6 -255.5c4.66699 -208 -50.666 -339.333 -165.999 -394s-205.333 -87 -270 -97c-32 -5.33301 -71.667 -9.83301 -119 -13.5s-103 -6.83398 -167 -9.50098
c-126 -4.66699 -243.333 -1.66699 -352 9c-110 11.333 -199.333 29.666 -268 54.999c-69.333 26 -147.666 77 -234.999 153c-86.667 76 -150 156.333 -190 241c-40 86.667 -69 176.667 -87 270c-9.33301 46.667 -16.166 90.5 -20.499 131.5s-6.83301 79.5 -7.5 115.5
c-1.33301 73.333 6 150.333 22 231c8 42 17.667 81.833 29 119.5s24.333 74.167 39 109.5c28.667 70.667 64.667 139.667 108 207c21.333 34 45.333 66.833 72 98.5s56 62.5 88 92.5c65.333 61.333 136.666 112.333 213.999 153c40 20.667 79.667 39.334 119 56.001
s79 31.667 119 45c80 26 153 43 219 51c33.333 4 70.833 8 112.5 12s88.5 7.66699 140.5 11s100.167 5.33301 144.5 6s85.5 0 123.5 -2s72.5 -4.66699 103.5 -8s58.5 -7 82.5 -11c48 -8 94 16.333 138 73z" />
    <glyph glyph-name="H" unicode="H" horiz-adv-x="2037" 
d="M510 1737v-995h1148l1 771l249 256v-1902c12.667 -108.667 93 -191.667 241 -249h-486v985h-1153v-765l-245 -261v1911c0 114 -83 197 -249 249h494z" />
    <glyph glyph-name="I" unicode="I" horiz-adv-x="677" 
d="M265 1786h207v-1980l-208 -216zM265 1528c-4.66699 130.667 -89 216.667 -253 258h253v-258zM472 1786h252.999c-163.333 -40.667 -247.666 -126.667 -252.999 -258v258z" />
    <glyph glyph-name="J" unicode="J" horiz-adv-x="1112" 
d="M755 1790l227.999 -0.00292969l-7 -1655c0 -28.667 -3.33301 -56.5 -10 -83.5s-15.667 -53.167 -27 -78.5s-23.333 -49.5 -36 -72.5s-26.667 -44.833 -42 -65.5s-33.833 -40.667 -55.5 -60s-46.5 -37.666 -74.5 -54.999s-57.833 -32.5 -89.5 -45.5
s-65.5 -23.167 -101.5 -30.5c-71.333 -15.333 -138.333 -20.333 -201 -15s-118.334 14.333 -167.001 27c-47.333 12.667 -82 31 -104 55c-21.333 23.333 -29 49.333 -23 78s26.667 45 62 49s68.333 -2.33301 99 -19c30 -16.667 58.333 -36.667 85 -60
c13.333 -11.333 27 -21.166 41 -29.499s28.333 -15.166 43 -20.499c28.667 -10.667 63.334 -13 104.001 -7c40 6 82.333 25.667 127 59c44 32.667 79 87 105 163c26.667 76 40.334 142.333 41.001 199c0.666992 58 1.66699 613.667 3 1667zM754.999 1532
c-5.33301 131.333 -89.667 217.333 -253 258h253v-258z" />
    <glyph glyph-name="K" unicode="K" horiz-adv-x="1765" 
d="M28 1786h443l1 -1980l-208 -216v1890c0 148.667 -78.667 250.667 -236 306zM1169 -21l-809 731l168 -2l1221 -1113l-447 -3c135.333 79.333 91 208.333 -133 387zM1306 1789l454.999 1.00098l-1221 -1114l-176 2l817 729c53.333 47.333 96.5 90.333 129.5 129
s55 73.5 66 104.5s10.833 58.667 -0.5 83s-34.666 46.166 -69.999 65.499z" />
    <glyph glyph-name="L" unicode="L" horiz-adv-x="1621" 
d="M389 1805l250.998 -247.997c-8.66699 -1027.33 -7.66699 -1578 3 -1652s23.667 -124 39 -150c14.667 -25.333 34 -41.666 58 -48.999c11.333 -3.33301 23.166 -6.33301 35.499 -9s24.833 -5.66699 37.5 -9c24.667 -6 97.334 -7.33301 218.001 -4s201 10.666 241 21.999
c20.667 6 39.167 11.667 55.5 17l44.5 14c26 8 55 29 87 63c16 17.333 31.833 35.666 47.5 54.999s31.167 40.333 46.5 63s28.333 43.167 39 61.5s19.334 35.166 26.001 50.499c14.667 32.667 31 60.334 49 83.001c18.667 23.333 28 -7.33398 28 -92.001
c0 -42 -1 -83 -3 -123s-5.66699 -79 -11 -117s-10.333 -69.167 -15 -93.5s-9.66699 -41.833 -15 -52.5c-11.333 -22 -25.666 -33 -42.999 -33h-1571c20.667 24.667 49.667 41.667 87 51c18.667 4.66699 38.5 10.667 59.5 18s43.167 15.666 66.5 24.999
c47.333 18.667 82 52 104 100c11.333 24 20 54.667 26 92s9 82 9 134v1783z" />
    <glyph glyph-name="M" unicode="M" horiz-adv-x="1978" 
d="M2085 1777c-27.333 -3.33301 -55.501 -13.499 -84.501 -30.499s-55.833 -37.833 -80.5 -62.5s-45 -51 -61 -79s-24 -54.333 -24 -79v-1920c-10.667 -1.33301 -24.667 -2 -42 -2s-34 0.666992 -50 2v1706c0 10.667 -5.33301 21.667 -16 33s-24.667 17.666 -42 18.999
c-4 0 -11.167 -1.5 -21.5 -4.5s-17.833 -10.167 -22.5 -21.5l-93.5 -224l-92.5 -224l-268.5 -649l-270.5 -648l-123.5 307l-135.5 327.5l-142 334.5l-144 328l-78.5 183l-52.5 131l-34 87.5c-8.66699 22.333 -17 39.5 -25 51.5s-16.167 19.667 -24.5 23s-18.833 4 -31.5 2
c-7.33301 -1.33301 -13 -4 -17 -8s-7.16699 -8.5 -9.5 -13.5s-4.16602 -9.66699 -5.49902 -14s-2.66602 -7.5 -3.99902 -9.5v-1708h-352c26 2.66699 54.167 11.5 84.5 26.5s58.5 34 84.5 57s47.667 48.667 65 77s26 56.833 26 85.5v1654c0 30 -6.66699 58.667 -20 86
s-31.833 52.333 -55.5 75s-51.334 42.667 -83.001 60s-65.5 31 -101.5 41h479l700 -1670l689 1670h480z" />
    <glyph glyph-name="N" unicode="N" horiz-adv-x="1854" 
d="M302 1773l-316 0.000976562c204 -50.667 309.333 -158.334 316 -323.001v323zM436 1773l1195 -1675v1482c0 96.667 -66.667 161 -200 193h457v-57c-122.667 2.66699 -184 -40.666 -184 -129.999v-2000l-1194 1698c-34.667 49.333 -62.5 76.833 -83.5 82.5
s-31.5 -9.5 -31.5 -45.5l1 -1719h-94l-1 2171h135z" />
    <glyph glyph-name="O" unicode="O" horiz-adv-x="1684" 
d="M511 -250c77.333 -51.333 136.335 -77.6709 177.002 -79.0039c40 -0.666992 56 -12.667 48 -36c-8 -22.667 -41.667 -35.667 -101 -39s-134.666 24.667 -225.999 84c-92 60 -164.333 130 -217 210c-53.333 81.333 -91.333 181 -114 299
c-11.333 60 -19.5 130.5 -24.5 211.5s-8.16699 174.167 -9.5 279.5c-0.666992 144.667 13.333 279 42 403c17.333 77.333 38.166 148.333 62.499 213s53.166 123.334 86.499 176.001s73.666 101.167 120.999 145.5s103 83.833 167 118.5c44.667 24 91.834 41.667 141.501 53
s101.5 16.666 155.5 15.999c83.333 -1.33301 155.5 -9 216.5 -23s112.5 -33.667 154.5 -59c49.333 -30 93.333 -65 132 -105s72 -86.667 100 -140c96 -184.667 144.667 -425 146 -721c0.666992 -169.333 -13.5 -321 -42.5 -455s-73.833 -251.667 -134.5 -353
c-36.667 -62 -100.334 -136 -191.001 -222c-90.667 -85.333 -165.334 -127.666 -224.001 -126.999s-83 12.667 -73 36c9.33301 22 51.333 45.667 126 71c72.667 56.667 132.334 120 179.001 190s83 146.667 109 230c21.333 69.333 38 147.833 50 235.5s18 186.167 18 295.5
c0 78 -2.66699 150.833 -8 218.5s-15 130.834 -29 189.501c-16 66.667 -35 127.334 -57 182.001s-46.333 104.334 -73 149.001c-28 47.333 -58.667 89 -92 125s-70.666 65.667 -111.999 89c-46 26.667 -89.833 46.167 -131.5 58.5s-81.5 18.5 -119.5 18.5
c-74.667 0 -146 -28 -214 -84s-139.667 -157.667 -215 -305c-38 -74 -66.833 -155.833 -86.5 -245.5s-30.167 -188.5 -31.5 -296.5c-1.33301 -158.667 6.5 -299.167 23.5 -421.5s44.167 -227.5 81.5 -315.5c25.333 -58.667 54.166 -110.167 86.499 -154.5
s66.5 -82.833 102.5 -115.5z" />
    <glyph glyph-name="P" unicode="P" horiz-adv-x="1716" 
d="M366 1758v-257c-7.33301 131.333 -130.333 217 -369 257h369zM365 -402v2160h420c377.333 0 613.666 -73.667 708.999 -221c38.667 -44.667 67.167 -95 85.5 -151s28.166 -118.333 29.499 -187c3.33301 -302 -204.667 -496.333 -624 -583
c-169.333 -18 -267.666 -24.833 -294.999 -20.5s16.334 20.5 131.001 48.5c229.333 55.333 406.333 171 531 347c154.667 356 48.667 576 -318 660c-272 17.333 -414.667 -24.667 -428 -126v-1637z" />
    <glyph glyph-name="Q" unicode="Q" horiz-adv-x="2189" 
d="M1110 -214c67.333 6.66699 123.167 13.8379 167.5 21.5049s77.5 16.167 99.5 25.5l58 24.5l43 18.5c23.333 9.33301 43.666 10 60.999 2c16.667 -8.66699 23.667 -20.334 21 -35.001c-2.66699 -14 -25.667 -34 -69 -60c-42.667 -25.333 -87.334 -43 -134.001 -53
c-23.333 -5.33301 -53.166 -10.333 -89.499 -15s-79.166 -9 -128.499 -13s-93.666 -6.5 -132.999 -7.5s-74.333 -0.166992 -105 2.5s-65.5 7.16699 -104.5 13.5s-82.5 14.5 -130.5 24.5c-96.667 20 -189.334 62 -278.001 126c-88 62 -162.667 149 -224 261
s-99.333 220 -114 324c-7.33301 52.667 -11.833 110.167 -13.5 172.5s0.166016 130.5 5.49902 204.5c10 146 36 270.667 78 374c42.667 104.667 90.667 195 144 271s128.666 142.333 225.999 199c96 56 209.667 101 341 135s250 45 356 33
c106.667 -12 220.334 -35 341.001 -69c122.667 -34 220.667 -94.667 294 -182c37.333 -44 71 -88.167 101 -132.5s56.333 -89.5 79 -135.5c44.667 -91.333 70.667 -204.333 78.001 -339c3.33301 -68 3.33301 -136.167 0 -204.5s-10 -137.833 -20 -208.5
c-20 -138.667 -51.333 -248.334 -94 -329.001c-42.667 -80 -97.334 -156.333 -164.001 -229l238 -176l81 -233l-766 627l-85 238l341 -274c67.333 -67.333 124.333 -32 171 106c43.333 246 57.333 429.667 42 551c-7.33301 60.667 -19.333 122.5 -36 185.5
s-38 127.5 -64 193.5c-52 132.667 -126.333 236.667 -223 312c-95.333 75.333 -180.333 126.666 -255 153.999c-74 27.333 -174.667 39.333 -302 36c-125.333 -2.66699 -219 -24 -281 -64c-59.333 -38.667 -125.666 -96.667 -198.999 -174
c-72.667 -76.667 -125.667 -186.334 -159 -329.001c-33.333 -143.333 -47 -276.666 -41 -399.999c3.33301 -62.667 10.5 -124.334 21.5 -185.001s25.833 -121.334 44.5 -182.001c37.333 -119.333 80.333 -216 129 -290c48.667 -73.333 111 -136 187 -188
s149.333 -88 220 -108c72 -20 153.333 -26.667 244 -20z" />
    <glyph glyph-name="R" unicode="R" horiz-adv-x="1582" 
d="M19 1747c534.667 4.66699 839.67 -0.333008 915.003 -15c76 -15.333 154.333 -41.333 235 -78c81.333 -36.667 146.666 -96.667 195.999 -180c48.667 -82.667 71.667 -173 69 -271c-3.33301 -97.333 -18.333 -172 -45 -224c-27.333 -52 -64 -97 -110 -135
s-95 -72 -147 -102c-51.333 -29.333 -87.333 -46.333 -108 -51c-20 -5.33301 -41 -14.333 -63 -27c-22 -13.333 -26 -28 -12 -44c7.33301 -8 15.166 -17 23.499 -27l27.5 -32c19.333 -22.667 62 -69.334 128 -140.001c65.333 -71.333 120.333 -157.666 165 -258.999
c44 -100.667 73.333 -175 88 -223c14.667 -48.667 29 -83.334 43 -104.001c7.33301 -11.333 14.833 -22.166 22.5 -32.499l22.5 -29.5c15.333 -20 37.666 -28.333 66.999 -25c28.667 2.66699 51 13 67 31s46.667 27.667 92 29c-23.333 -74 -56 -124.667 -98 -152
s-82 -45 -120 -53c-19.333 -4 -39.5 -7.5 -60.5 -10.5s-42.167 -5.16699 -63.5 -6.5c-42.667 -2.66699 -78.667 11.666 -108 42.999c-14 15.333 -26.667 30.833 -38 46.5s-20.666 31.167 -27.999 46.5c-14.667 30 -31.667 76.333 -51 139
c-9.33301 30.667 -20.333 63.334 -33 98.001s-26.667 71 -42 109l-47.5 116l-48.5 116c-32.667 78 -59.667 135.667 -81 173c-22 38.667 -56 71 -102 97c-44.667 25.333 -83.334 40 -116.001 44s-57.334 10.667 -74.001 20c-17.333 10 -31.666 23 -42.999 39
c-10.667 16.667 -7 30.334 11 41.001c19.333 11.333 80 15.333 182 12c101.333 -2.66699 164 0 188 8c23.333 8 52.666 27.667 87.999 59s68.666 68.666 99.999 111.999c30.667 44 49.667 95 57 153c6.66699 57.333 4 113 -8 167c-12 52.667 -35 108.667 -69 168
c-33.333 58 -77.666 111.667 -132.999 161c-53.333 48 -130.666 84.667 -231.999 110c-163.333 -1.33301 -245 -35.333 -245 -102l-4 -1629l-236 -334v1873c0 138 -73.667 229.667 -221 275z" />
    <glyph glyph-name="S" unicode="S" horiz-adv-x="1361" 
d="M1133 1701l24.9951 -536c-30 58.667 -79 137 -147 235c-34 48.667 -63.667 89 -89 121s-46.666 56 -63.999 72c-33.333 31.333 -104.333 53.666 -213 66.999c-107.333 12.667 -198.333 -5.33301 -273 -54c-74 -49.333 -123 -102.333 -147 -159
c-24 -57.333 -25 -115.333 -3 -174c22.667 -60 56.667 -109.333 102 -148c46 -39.333 115 -78.333 207 -117c92 -39.333 183.333 -83 274 -131c45.333 -24 90.333 -49.667 135 -77l135 -86c90.667 -60.667 156.334 -132 197.001 -214c40.667 -82.667 59 -174.667 55 -276
s-19 -176.333 -45 -225c-13.333 -25.333 -29.166 -51 -47.499 -77s-39.5 -53 -63.5 -81c-48 -56 -118 -111 -210 -165c-92.667 -54 -210 -77.667 -352 -71c-141.333 6.66699 -265 51 -371 133c-105.333 81.333 -154 134 -146 158s40 18 96 -18l81 -51l76 -47
c48 -29.333 101 -50.666 159 -63.999c56 -12.667 124.667 -15 206 -7c80.667 8 146.334 30 197.001 66c51.333 36 90.666 76.667 117.999 122c28 46 52 102.333 72 169c20 68.667 12.333 159.667 -23 273c-34.667 112 -142 213.333 -322 304
c-177.333 89.333 -328 182.333 -452 279c-122.667 96 -194 184.333 -214 265c-20 81.333 -20.667 153.333 -2 216c19.333 64 57 127 113 189s117.333 108.333 184 139c64.667 30.667 156.334 42.334 275.001 35.001c116 -6.66699 201 -34.667 255 -84
c52.667 -48.667 94.334 -75.667 125.001 -81c30 -4.66699 62.333 28.666 97 99.999z" />
    <glyph glyph-name="T" unicode="T" horiz-adv-x="1722" 
d="M774 1556c0 76 -50.002 114 -150.002 114c-310 -1.33301 -514 -147 -612 -437l69 433c0.666992 68.667 37.334 103 110.001 103h1418c66 0 98.667 -34.333 98 -103l70 -431c-97.333 290.667 -321.333 435.667 -672 435c-25.333 -4 -45.166 -15.167 -59.499 -33.5
s-21.5 -43.833 -21.5 -76.5v-1636l-250 -322v1954z" />
    <glyph glyph-name="U" unicode="U" horiz-adv-x="1543" 
d="M257 1508c-5.33301 -785.333 -0.332031 -1236 15.001 -1352c14.667 -114.667 70 -212.334 166 -293.001c97.333 -81.333 216 -124 356 -128c141.333 -4 263.333 47.667 366 155c52 54 91.833 116 119.5 186s41.5 149.333 41.5 238v1276c0 80.667 -82 139 -246 175h576
c-162.667 -32 -244 -90.333 -244 -175v-1275c-14 -157.333 -46.333 -280.666 -97 -369.999c-50 -89.333 -119.333 -166.333 -208 -231c-88.667 -66 -196.667 -102.333 -324 -109c-127.333 -7.33301 -241.333 15.667 -342 69c-102 53.333 -181.667 113.666 -239 180.999
c-58.667 68.667 -99.334 137.334 -122.001 206.001c-11.333 35.333 -20.5 74.666 -27.5 117.999s-10.5 91 -10.5 143v1443z" />
    <glyph glyph-name="V" unicode="V" horiz-adv-x="1569" 
d="M1681 1805c-54.667 -3.33301 -109.166 -37.499 -163.499 -102.499s-105.5 -162.5 -153.5 -292.5l-679 -1834l-60 417l566 1412c105.333 263.333 75.666 396.666 -89.001 399.999h579zM685.001 -422.999l-665 2220l355 -334l400 -1288z" />
    <glyph glyph-name="W" unicode="W" horiz-adv-x="2546" 
d="M384 1440l400.001 -1303c322.667 914 480 1409 472 1485c-8 74.667 -69.333 133.334 -184 176.001h581c-72.667 -25.333 -120.334 -64.5 -143.001 -117.5s-19 -119.833 11 -200.5l486 -1340l421 1337c32.667 152.667 -19.333 259.667 -156 321l456 4
c-30 -32 -55 -67.167 -75 -105.5s-37 -80.166 -51 -125.499l-616 -1964h-44l-575 1660l-640 -1669h-45l-665 2216z" />
    <glyph glyph-name="X" unicode="X" horiz-adv-x="2035" 
d="M2008 1806c-103.333 -33.333 -202.334 -109.332 -297.001 -227.999l-1111 -1703c-52 -79.333 -64.167 -143 -36.5 -191s92.834 -79.333 195.501 -94l-712 -1c40 10 77.5 25 112.5 45s68.333 44.167 100 72.5s62 60.666 91 96.999s57.167 76.5 84.5 120.5l1067 1690
c33.333 52.667 35.5 94.667 6.5 126s-90.5 53.333 -184.5 66h684zM734.999 1806c-97.333 -12.667 -161.168 -34.833 -191.501 -66.5s-28.833 -73.5 4.5 -125.5l1076 -1690c92.667 -182 223.334 -293.333 392.001 -334h-686c93.333 14.667 151.333 46.167 174 94.5
s8 111.833 -44 190.5l-1121 1703c-95.333 118.667 -194.333 194.667 -297 228h693z" />
    <glyph glyph-name="Y" unicode="Y" horiz-adv-x="1905" 
d="M1642 1761l256.001 -0.00195312l-790 -958c-11.333 -11.333 -20.333 -27.666 -27 -48.999s-11.667 -47.666 -15 -78.999s-5.33301 -67.666 -6 -108.999s-1 -87.333 -1 -138v-528c0 -58 9.33301 -101.833 28 -131.5s44 -45.834 76 -48.501
c62.667 -4.66699 108 -15.334 136 -32.001c28 -17.333 47.333 -44.666 58 -81.999h-856c-9.33301 35.333 -1.33301 62 24 80s70 35 134 51c65.333 16 111.666 68.667 138.999 158l4 550c0.666992 101.333 -1.5 181.333 -6.5 240s-17.833 96.667 -38.5 114l-717 983l383 -176
l522 -721l432 505l255 291zM1475 1503c120 130.667 117.333 216.667 -8 258h253z" />
    <glyph glyph-name="Z" unicode="Z" horiz-adv-x="1931" 
d="M1953 1741c-126.667 -52.667 -263.666 -197.333 -410.999 -434l-1175 -1475c889.333 -44 1378.67 36.333 1468 241h53l-171 -483c-507.333 23.333 -899.166 38.666 -1175.5 45.999s-437.5 6.33301 -483.5 -3l1341 1690c61.333 77.333 48.166 137.5 -39.501 180.5
s-245.167 65.167 -472.5 66.5c-454.667 2.66699 -739 -33.666 -853 -108.999l244 280h1675z" />
    <glyph glyph-name="bracketleft" unicode="[" horiz-adv-x="733" 
d="M721 -372c0 -8 -3.33203 -12.001 -9.99902 -12.001h-459c-19.333 0 -29 9.33301 -29 28v1942c0 15.333 6.33301 23 19 23h465c9.33301 0 14 -2.66699 14 -8v-33c0 -8 -4 -12 -12 -12h-254c-11.333 0 -22.5 0.333008 -33.5 1s-21.833 1.66699 -32.5 3
c-6.66699 0.666992 -11 -1 -13 -5c-2 -2.66699 -2.33301 -8 -1 -16c4 -25.333 6 -47.666 6 -66.999v-1672c0 -2 -0.333008 -12 -1 -30l-3 -79c0 -12 1 -19.333 3 -22c2.66699 -4 7.66699 -5.33301 15 -4c11.333 1.33301 20.666 2.33301 27.999 3s13 1 17 1h269
c8 0 12 -2.66699 12 -8v-33z" />
    <glyph glyph-name="backslash" unicode="\" horiz-adv-x="589" 
d="M590 -79c0 -2 -5.66699 -6.66699 -17 -14c-5.33301 -2.66699 -14 -4 -26 -4c-8.66699 8 -15.667 19.667 -21 35l-79 230.5l-174 516.5l-172 517.5l-74 227.5c-6.66699 20.667 -9 32.667 -7 36c0 2.66699 5.66699 7.66699 17 15c5.33301 2.66699 14 4 26 4
c9.33301 -9.33301 16.333 -21 21 -35l257 -749l243 -743c10 -18 12 -30.333 6 -37z" />
    <glyph glyph-name="bracketright" unicode="]" horiz-adv-x="649" 
d="M506 -376c0 -18.667 -9.66797 -28.002 -29.001 -28.002h-457c-6.66699 0 -10 4 -10 12v33c0 5.33301 4.33301 8 13 8h268c3.33301 0 8.83301 -0.333008 16.5 -1s17.167 -1.66699 28.5 -3c7.33301 -1.33301 12 0.333984 14 5.00098
c2.66699 2.66699 3.33398 9.66699 2.00098 21v20c0 8.66699 -0.333008 19.334 -1 32.001s-1 23.667 -1 33v24v1672c0 14.667 0.333008 27.5 1 38.5s1.66699 20.5 3 28.5c0.666992 6.66699 0.666992 12 0 16c-2 4 -6 5.66699 -12 5
c-9.33301 -1.33301 -19.5 -2.33301 -30.5 -3s-22.833 -1 -35.5 -1h-253c-8.66699 0 -13 4 -13 12v33c0 5.33301 5 8 15 8h462c12.667 0 19 -7.66699 19 -23v-1942z" />
    <glyph glyph-name="asciicircum" unicode="^" horiz-adv-x="778" 
d="M700 1038c-1.33301 -3.33301 -2.66406 -7.49805 -3.99707 -12.498s-3.33301 -10.167 -6 -15.5c-6.66699 -4.66699 -12 -7.66699 -16 -9c-2.66699 3.33301 -5.83398 7 -9.50098 11s-8.16699 8.66699 -13.5 14l-115 109l-153 153l-8 17l-8 -17
c-14 -17.333 -32 -37.333 -54 -60s-48.667 -48 -80 -76c-73.333 -67.333 -118.333 -109.333 -135 -126l-9 -11.5c-3.33301 -4.33301 -7.66602 -8.83301 -12.999 -13.5l-6 3c-2.66699 1.33301 -6.33398 3.33301 -11.001 6c-6 9.33301 -9.33301 18.666 -10 27.999
c-0.666992 5.33301 5 17 17 35l115.5 169l144.5 210c2.66699 3.33301 5.66699 7.33301 9 12s7.66602 9.66699 12.999 15c2 0 7.66699 -3.66699 17 -11c2 -2.66699 5.33301 -6 10 -10c2 0.666992 5.33301 4 10 10c6 6 11.333 9.66699 16 11l8.5 -8.5
c4.33301 -4.33301 9.16602 -10.5 14.499 -18.5l114.5 -166.5l145.5 -212.5c12 -16.667 17.333 -28.334 16 -35.001z" />
    <glyph glyph-name="underscore" unicode="_" horiz-adv-x="770" 
d="M774 -347c-7.33301 -11.333 -17.002 -17 -29.002 -17h-716c-12 0 -21.667 5.66699 -29 17c-6.66699 12.667 -6.66699 26.334 0 41.001c6.66699 13.333 16.334 20 29.001 20c301.333 -5.33301 540 -5.33301 716 0c12.667 0 22.334 -6.66699 29.001 -20
c8 -14.667 8 -28.334 0 -41.001z" />
    <glyph glyph-name="grave" unicode="`" horiz-adv-x="414" 
d="M240 1305c2.66699 -2.66699 0.332031 -15.668 -7.00098 -39.001c-10 -33.333 -10 -79.333 0 -138c7.33301 -41.333 11 -77.166 11 -107.499s-3.66699 -55.833 -11 -76.5c-6 -17.333 -12.667 -29 -20 -35c-7.33301 -3.33301 -16 -2.33301 -26 3
c-10.667 6 -17 12.667 -19 20c-2 8.66699 0.666992 19.667 8 33c10 32 8.66699 84.333 -4 157c-11.333 68 -10 122.667 4 164c4.66699 14 10.334 24.333 17.001 31c2 2.66699 5.66699 4 11 4c6.66699 0 13 -1.33301 19 -4l7.5 -5c3 -2 6.16699 -4.33301 9.5 -7z" />
    <glyph glyph-name="a" unicode="a" horiz-adv-x="941" 
d="M258 187l-3 -12v-4v-2l1 -3l2 -2l3 -2h373l3 3v5l-2 7l-142 527l-10 18l-10 9l-12 1l-11 -1l-11 -7l-11 -21zM287 892h194l10 -4l11 -8l5 -10l2 -10l404 -1281l-4 2l-18 14l-10 8l-145 134l-95 320l-3 15l-3 5l-3 4l-5 1l-4 1l-17 2l-388 -1h-5l-3 -2v-3l-2 -5l-127 -440
l-12 -34l-7 -6l-5 -1l-5 -2h-5l-6 1l-9 4l-4 4l-5 7l-1 5v5l2 8v3l1 3l331 1055l8 31l6 62l-3 38l-14 21l-17 14l-14 6l-14 3l-16 4l-21 5h-20l8 6l13 10l6 3z" />
    <glyph glyph-name="b" unicode="b" horiz-adv-x="1018" 
d="M199 900h-167.001c108.667 -27.333 164.334 -84 167.001 -170v170zM197.999 -226c-3.33301 -87.333 -59 -144 -167 -170h167v170zM346.999 373c-4 -60 20.3311 -91.9961 72.998 -95.9961c26.667 -2 50.5 -3 71.5 -3s39.5 0.666992 55.5 2
c16.667 1.33301 34.834 4.66602 54.501 9.99902s41.167 12.666 64.5 21.999c46 17.333 79 36.666 99 57.999c19.333 20.667 32 48 38 82c3.33301 17.333 5.33301 36.333 6 57s0 42.667 -2 66c-4 48 -18.667 99.667 -44 155c-25.333 56 -70 92 -134 108
c-62 16 -123.333 21.333 -184 16c-59.333 -4.66699 -90.666 -19.667 -93.999 -45c-1.33301 -12 -2.33301 -53.833 -3 -125.5s-1 -173.834 -1 -306.501zM197.997 900.004c297.333 2 448.002 1.99609 452.002 -0.00390625c2 -0.666992 8.16699 -3.16699 18.5 -7.5l43.5 -17.5
c37.333 -15.333 71.333 -41.666 102 -78.999c30 -36.667 52.667 -71 68 -103c14.667 -30 24.667 -70 30 -120c4.66699 -49.333 -1.33301 -97.333 -18 -144c-16.667 -46 -40 -80.333 -70 -103c-29.333 -22.667 -42.666 -46 -39.999 -70c3.33301 -26 22 -48.333 56 -67
c36 -19.333 71.333 -51 106 -95c35.333 -43.333 56.333 -97 63 -161c6.66699 -64.667 -7 -123.667 -41 -177c-34 -52.667 -77.667 -91.667 -131 -117c-26.667 -12.667 -65.834 -21.834 -117.501 -27.501s-115.834 -8.5 -192.501 -8.5c-152.667 0 -235 1.66699 -247 5
c-11.333 3.33301 -8 35 10 95c18 59.333 40 65.666 66 18.999s97.333 -66.667 214 -60s196.667 25.667 240 57c42.667 30.667 66 77 70 139c2 30.667 1.66699 59.834 -1 87.501s-8 53.834 -16 78.501c-15.333 49.333 -43.333 92.333 -84 129c-40 36 -73.667 55 -101 57
c-13.333 1.33301 -33.333 2.33301 -60 3s-60.334 1.33398 -101.001 2.00098c-80.667 0.666992 -130.667 -9.66602 -150 -30.999s-29.333 -214.666 -30 -579.999h-140l1 1296v0z" />
    <glyph glyph-name="c" unicode="c" horiz-adv-x="1147" 
d="M1166 -236c-44.667 -50 -121.33 -94.6709 -229.997 -134.004c-42.667 -15.333 -90.334 -27.166 -143.001 -35.499s-111 -12.5 -175 -12.5c-54.667 0 -103.167 2.83301 -145.5 8.5s-79.5 14.167 -111.5 25.5c-32.667 11.333 -64.834 27.333 -96.501 48
s-62.834 46.334 -93.501 77.001c-101.333 100 -152 251.667 -152 455c0 112 29.333 225.667 88 341c47.333 92.667 118.666 170.334 213.999 233.001c124.667 82.667 285.334 124 482.001 124c72.667 0 139.667 -3 201 -9c71.333 -8 118.333 -20.333 141 -37l-26 -181
c-19.333 34 -52 67.333 -98 100c-65.333 33.333 -162.333 50 -291 50c-164 0 -295 -51 -393 -153c-110.667 -116.667 -166 -262 -166 -436c0 -190.667 58.333 -340 175 -448c58.667 -54.667 118 -91.667 178 -111c55.333 -17.333 128 -26 218 -26
c66.667 0 131.667 15 195 45c64.667 30.667 111.667 69.667 141 117c17.333 26.667 30 58 38 94c4 -13.333 10.167 -31.166 18.5 -53.499z" />
    <glyph glyph-name="d" unicode="d" horiz-adv-x="1242" 
d="M36 887l793 0.000976562c118.667 -35.333 210.167 -102.833 274.5 -202.5s96.166 -231.167 95.499 -394.5c-1.33301 -153.333 -33.166 -280.833 -95.499 -382.5s-149.5 -177.834 -261.5 -228.501c-36.667 -16.667 -90.167 -28.334 -160.5 -35.001s-158.5 -8 -264.5 -4
c-30 13.333 -31.667 25.333 -5 36h62l155 8c90.667 4.66699 175.334 43.334 254.001 116.001c54 60.667 95.833 121.334 125.5 182.001s48.167 122.334 55.5 185.001c8 64.667 8 131.167 0 199.5s-25.333 139.166 -52 212.499
c-60.667 130.667 -151.334 206.667 -272.001 228h-333c-22.667 3.33301 -38 -4.33398 -46 -23.001s-12 -49 -12 -91v-918l-147 -152v1092c-10 78.667 -65.333 136 -166 172z" />
    <glyph glyph-name="e" unicode="e" horiz-adv-x="1033" 
d="M54 892l873.001 -0.00390625c28 -85.333 34 -188.666 18 -309.999c-46.667 142 -143.334 221.667 -290.001 239h-244c-36.667 0 -55 -60 -55 -180v-351h292v-55h-292v-501c0 -63.333 39 -96.333 117 -99c40 -1.33301 78.667 0.333984 116 5.00098
s74.333 12.334 111 23.001c72 20.667 129 56.667 171 108c41.333 50.667 71.666 95 90.999 133c19.333 38.667 34.666 58.334 45.999 59.001c12.667 0.666992 21.334 -8.33301 26.001 -27c5.33301 -20 0.666016 -51 -14.001 -93
c-7.33301 -21.333 -16.166 -52.333 -26.499 -93s-22.166 -91 -35.499 -151l-932 -1c142.667 0 214 83 214 249v889c0 73.333 -62 125.333 -186 156z" />
    <glyph glyph-name="f" unicode="f" horiz-adv-x="982" 
d="M27 899h869l18 -315c-46.667 144 -144.334 224.667 -293.001 242h-248c-19.333 -4.66699 -33.166 -22.167 -41.499 -52.5s-12.5 -73.833 -12.5 -130.5v-342h280v-88h-280v-431h-155l-2 958c-20 76.667 -65 129.667 -135 159zM36 -358
c17.333 0.666992 34.666 4.33301 51.999 11c15.333 6 31.333 18.667 48 38s25.334 33 26.001 41c2 8 2.66699 24.667 2 50h76v-187h-204v47zM446 -405.001l-213.999 -0.000976562v188h86c-0.666992 -13.333 -0.833984 -24.333 -0.500977 -33s0.833008 -14.667 1.5 -18
c1.33301 -7.33301 10 -20.666 26 -39.999c16.667 -19.333 32.667 -32 48 -38c8 -3.33301 16.5 -6 25.5 -8s18.167 -3.33301 27.5 -4v-47z" />
    <glyph glyph-name="g" unicode="g" horiz-adv-x="1229" 
d="M1136 908c3.33301 -193.333 -0.00683594 -280.327 -10.0068 -260.994l-14 26.5c-4 7.66699 -8 14.5 -12 20.5c-8 12 -21.333 24.333 -40 37c-20 13.333 -46 25 -78 35c-16 5.33301 -33.667 10 -53 14s-40.333 8 -63 12c-45.333 8 -94 11 -146 9
c-26 -1.33301 -51.167 -3.33301 -75.5 -6s-48.166 -6.33398 -71.499 -11.001c-46 -9.33301 -88.333 -25.666 -127 -48.999c-19.333 -12 -39.166 -26.667 -59.499 -44s-41.166 -37.333 -62.499 -60s-40.166 -46.167 -56.499 -70.5s-30.166 -50.5 -41.499 -78.5
c-11.333 -27.333 -20.833 -55.333 -28.5 -84s-13.5 -58.334 -17.5 -89.001c-8 -62 -8.66699 -119.333 -2 -172c3.33301 -26.667 7.33301 -52.334 12 -77.001s10.334 -48 17.001 -70c6.66699 -23.333 15.167 -45.5 25.5 -66.5s22.166 -41.167 35.499 -60.5
s26.666 -36.833 39.999 -52.5s26.666 -29.5 39.999 -41.5c13.333 -12.667 25.5 -23.5 36.5 -32.5s20.833 -16.5 29.5 -22.5c18 -12.667 43.667 -26.334 77 -41.001s69 -23 107 -25s77 -3 117 -3c40.667 0 74 1 100 3c13.333 1.33301 25.5 2.83301 36.5 4.5
s21.167 4.16699 30.5 7.5c17.333 6.66699 36 18 56 34c20.667 16.667 32.334 33 35.001 49c3.33301 17.333 5.33301 42 6 74c0.666992 16 1 32.667 1 50v54c0 18.667 -0.333008 35 -1 49s-1.66699 26 -3 36c-1.33301 10.667 -2 20.334 -2 29.001s0.333008 16.667 1 24
c0.666992 14 -15.333 30 -48 48c-16.667 9.33301 -36.167 19 -58.5 29s-48.5 20.333 -78.5 31h255c30.667 0 53.5 -3 68.5 -9s22.5 -17.333 22.5 -34s0.5 -44.334 1.5 -83.001s2.16699 -89.334 3.5 -152.001c2.66699 -125.333 -30.333 -204.333 -99 -237
c-68 -32.667 -122 -52 -162 -58c-19.333 -3.33301 -43.166 -6 -71.499 -8s-61.5 -3.66699 -99.5 -5s-74.5 -1.5 -109.5 -0.5s-68.833 3.16699 -101.5 6.5c-64 6 -117.667 16.667 -161 32c-41.333 14.667 -88.333 45.334 -141 92.001c-51.333 45.333 -89 94 -113 146
c-12 25.333 -22.333 51.333 -31 78s-15.667 53.667 -21 81c-5.33301 28 -9.33301 54.167 -12 78.5s-4.33398 47.166 -5.00098 68.499s0 43.666 2 66.999s5.66699 47.333 11 72c10 48 23.667 93.667 41 137c8.66699 21.333 18.334 42.333 29.001 63s22.334 41 35.001 61
c26 40.667 58.333 79 97 115c39.333 36 82 66.333 128 91c23.333 12.667 46.833 23.834 70.5 33.501s47.5 18.5 71.5 26.5s47 14.5 69 19.5s42.667 8.83301 62 11.5c20 2.66699 42.667 5 68 7s53.333 4 84 6c62 4 115.333 5 160 3
c22.667 -1.33301 43.167 -2.83301 61.5 -4.5s34.833 -3.83398 49.5 -6.50098c28.667 -4.66699 56.334 9.66602 83.001 42.999z" />
    <glyph glyph-name="h" unicode="h" horiz-adv-x="1331" 
d="M875 -423c102 32 153 83.333 153 154v1169l150 -1v-1322h-303zM319 900v-1322l-151 -1v1170c0 70 -50.667 121 -152 153h303zM162 -423v1322l151 1v-1169c0 -70.667 50.667 -122 152 -154h-303zM16 -423c101.333 32 152 83.333 152 154v1169l151 -1v-1322h-303zM319 290
h746l3 -85h-749v85zM1178 900v-1322l-150 -1v1170c0 70 -51 121 -153 153h303z" />
    <glyph glyph-name="i" unicode="i" horiz-adv-x="427" 
d="M160 -226v1128l124 -129v-999c0 -87.333 49.667 -148.666 149 -183.999h-414c94 32.667 141 94 141 184z" />
    <glyph glyph-name="j" unicode="j" horiz-adv-x="880" 
d="M469 897h136.003v-993c0 -17.333 -2 -34.166 -6 -50.499s-9.33301 -32.166 -16 -47.499s-14 -30 -22 -44s-16.667 -27 -26 -39s-20.333 -23.833 -33 -35.5s-27.334 -22.834 -44.001 -33.501c-32.667 -20.667 -71 -35.667 -115 -45
c-21.333 -4.66699 -42.166 -7.83398 -62.499 -9.50098s-40.166 -1.83398 -59.499 -0.500977c-18.667 1.33301 -36.334 3.33301 -53.001 6s-32.334 6 -47.001 10c-30 8.66699 -51 19.667 -63 33c-12 14 -16.333 29.667 -13 47c3.33301 18 15.666 28 36.999 30s41 -2 59 -12
c18.667 -11.333 35.667 -23.333 51 -36c16 -14 32.667 -24 50 -30s38.666 -7.33301 63.999 -4c24 2.66699 49.333 14.334 76 35.001c26.667 20 47.667 53 63 99c14.667 44.667 22.667 84.667 24 120c0.666992 34.667 0.666992 368 0 1000zM605.003 897h167
c-108 -26.667 -163.667 -84 -167 -172v172z" />
    <glyph glyph-name="k" unicode="k" horiz-adv-x="1000" 
d="M569 -177l-483 436l101 -2l729 -663l-267 -2c80.667 48 54 125 -80 231zM651 903l272 1l-730 -665l-104 1l488 435c64 57.333 102.833 104 116.5 140s-0.5 65.333 -42.5 88zM156 718v-1128l-124 130l1 1181h264c-94 -33.333 -141 -94.333 -141 -183z" />
    <glyph glyph-name="l" unicode="l" horiz-adv-x="337" 
d="M149 -145c0 -32 2.33203 -59.333 6.99902 -82s10.334 -41 17.001 -55c12.667 -28 33.334 -48 62.001 -60c14.667 -6 28.167 -11 40.5 -15s23.5 -7.33301 33.5 -10c19.333 -4.66699 36.666 -15.667 51.999 -33h-327v1149l115 151v-1045z" />
    <glyph glyph-name="m" unicode="m" horiz-adv-x="1585" 
d="M1300 -407l164 0.000976562c-106 25.333 -160.667 80.666 -164 165.999v-166zM191 -235.999c-3.33301 -85.333 -57.667 -140.667 -163 -166h163v166zM325.999 896l421.999 -1003l415 1003h299c-107.333 -29.333 -161 -93 -161 -191l-1 -1112h-55v1018
c-13.333 36 -33.333 43 -60 21l-437 -1050l-433 1020c-12 28 -24.167 43 -36.5 45s-22.166 -7.66699 -29.499 -29v-1020h-58v1124c0 86.667 -55.667 144.667 -167 174h302z" />
    <glyph glyph-name="n" unicode="n" horiz-adv-x="1194" 
d="M250 -415h164c-106 26 -160.667 81.667 -164 167v-167zM274 897l722.999 -1012v896c0 58 -40 96.667 -120 116h165l-1 -1323l-722 1027c-21.333 30 -38.166 46.667 -50.499 50s-18.5 -5.66699 -18.5 -27v-1039h-57v1137c0 30 -14.167 59.5 -42.5 88.5
s-71.833 57.833 -130.5 86.5h254z" />
    <glyph glyph-name="o" unicode="o" horiz-adv-x="1333" 
d="M416 -326c32.667 -15.333 61.1641 -26.832 85.4971 -34.499s44.833 -11.834 61.5 -12.501c33.333 -0.666992 46.666 -8 39.999 -22c-7.33301 -14 -47.333 -21 -120 -21c-72 0 -152 34.333 -240 103c-87.333 68 -145 144.667 -173 230c-14 42 -24.333 89 -31 141
s-10.334 109.333 -11.001 172c-0.666992 86 11 166.333 35 241c15.333 46 32.833 88.333 52.5 127s43.5 74 71.5 106s61.667 61.167 101 87.5s85.333 49.833 138 70.5c38 14.667 77.5 25.334 118.5 32.001s83.833 9.66699 128.5 9
c68.667 -0.666992 128.5 -5.16699 179.5 -13.5s93.833 -20.166 128.5 -35.499c83.333 -35.333 147.333 -84.333 192 -147c80 -110.667 120.333 -254.334 121 -431.001c0.666992 -200 -48.333 -357 -147 -471l-44 -50.5c-13.333 -15 -26.666 -28.167 -39.999 -39.5
c-21.333 -17.333 -45.666 -33.666 -72.999 -48.999s-58 -30.333 -92 -45s-62 -24.667 -84 -30s-38.667 -6.33301 -50 -3c-22.667 6 -30 16 -22 30c8 13.333 69 37.333 183 72c34 24 64.167 53.667 90.5 89s49.833 76 70.5 122c18.667 41.333 32.667 88 42 140
s14 110.667 14 176c0 46.667 -2.16699 90.167 -6.5 130.5s-12.166 78.166 -23.499 113.499c-13.333 40 -29.166 76.167 -47.499 108.5s-38.5 62.166 -60.5 89.499c-23.333 28 -49 52.833 -77 74.5s-59 39.5 -93 53.5c-75.333 30.667 -144.666 46 -207.999 46
c-61.333 0 -120.666 -16.667 -177.999 -50c-56.667 -33.333 -116 -94 -178 -182c-31.333 -44 -55.333 -93 -72 -147s-25.334 -113.333 -26.001 -178c-1.33301 -94.667 5.16699 -178.5 19.5 -251.5s36.833 -135.5 67.5 -187.5c21.333 -36 45.333 -67.333 72 -94
s55 -49.667 85 -69z" />
    <glyph glyph-name="p" unicode="p" horiz-adv-x="936" 
d="M227 904l255 -0.00292969c228 0 370.667 -44.667 428 -134c46.667 -53.333 70 -121.666 70 -204.999c-44 -248 -257.667 -335 -641 -261c-76.667 52.667 -109 84.334 -97 95.001s68.333 1 169 -29c200 -60 338 -36.667 414 70c92.667 214.667 28.667 347.667 -192 399
c-164 10.667 -250.667 -14.666 -260 -75.999v-988l-145 -177zM228 734.997c-2.66699 86 -58 142.333 -166 169h166v-169z" />
    <glyph glyph-name="q" unicode="q" horiz-adv-x="990" 
d="M703 -158c0.666992 29.333 1.16797 71.166 1.50098 125.499s0.5 121.833 0.5 202.5c0 18.667 -7 21 -21 7c-30 -28.667 -65 -54.334 -105 -77.001c-78.667 -42.667 -145 -64 -199 -64c-67.333 0 -121 13 -161 39c-9.33301 6 -19.833 15.333 -31.5 28
s-24.834 28.334 -39.501 47.001c-54.667 70.667 -82 174.334 -82 311.001c0 119.333 35.667 219.666 107 300.999s159 122 263 122c36 0 71.333 -5.66699 106 -17s70.667 -26.666 108 -45.999c43.333 -22.667 80.5 -26.5 111.5 -11.5s55.833 47.5 74.5 97.5l2 -1304z
M709.001 269c0 115.333 -1.16602 210.667 -3.49902 286s-5.83301 132 -10.5 170c-2 7.33301 -7 17.666 -15 30.999c-14 10.667 -46 23 -96 37c-60 17.333 -112.667 26 -158 26c-50 0 -89.667 -9.33301 -119 -28c-7.33301 -5.33301 -16 -13 -26 -23s-21 -23.333 -33 -40
c-47.333 -63.333 -71 -142.666 -71 -237.999c0 -30 3 -59.833 9 -89.5s15.667 -59.167 29 -88.5c20 -45.333 39.667 -76.333 59 -93c51.333 -43.333 110 -65 176 -65c58.667 0 112.667 9 162 27c41.333 16 69.666 34.667 84.999 56c8 8 12 18.667 12 32z" />
    <glyph glyph-name="r" unicode="r" horiz-adv-x="1047" 
d="M19 885c322 2.66699 505.334 -0.333008 550.001 -9s92 -24.334 142 -47.001s89.333 -58.667 118 -108c29.333 -50.667 43 -105 41 -163c-1.33301 -30 -4 -56.167 -8 -78.5s-10.333 -41.166 -19 -56.499c-16 -31.333 -38 -58.333 -66 -81c-14 -11.333 -28.5 -22 -43.5 -32
l-45.5 -29c-30.667 -18 -52.334 -28.333 -65.001 -31c-13.333 -3.33301 -26 -8.66602 -38 -15.999c-12.667 -8 -15 -17 -7 -27c4 -5.33301 8.66699 -10.666 14 -15.999s11 -11.666 17 -18.999s15.5 -18 28.5 -32l48.5 -53c39.333 -42 72.333 -93.333 99 -154l33.5 -79.5
c9 -22.333 15.5 -40.5 19.5 -54.5c8 -28 16.667 -49 26 -63l13.5 -19.5c4.33301 -6.33301 8.83301 -12.166 13.5 -17.499c9.33301 -12 22.666 -17 39.999 -15c18.667 2 32.334 8.33301 41.001 19c8.66699 10 27 15.667 55 17c-15.333 -45.333 -35 -75.666 -59 -90.999
c-26 -16.667 -50.333 -27.334 -73 -32.001c-11.333 -2.66699 -23.166 -4.66699 -35.499 -6l-38.5 -4c-26.667 -2 -48.334 6.33301 -65.001 25c-8.66699 9.33301 -16.334 18.666 -23.001 27.999s-12.334 18.666 -17.001 27.999c-9.33301 18.667 -19.333 46.667 -30 84
c-5.33301 18.667 -11.833 38.334 -19.5 59.001l-25.5 66l-28.5 69.5l-29.5 68.5l-27 61c-8 17.333 -15.333 31.666 -22 42.999c-12.667 22.667 -33 42 -61 58c-27.333 15.333 -60.333 22.666 -99 21.999c-38 -0.666992 -65.333 7.33301 -82 24s-22 35.667 -16 57
c6 20.667 13.333 19 22 -5s51.667 -31 129 -21c78 10 123 17.333 135 22c14.667 5.33301 32.334 17.333 53.001 36c22 19.333 42 41.666 60 66.999c18.667 25.333 30 56 34 92c4 36.667 2.66699 70 -4 100c-7.33301 32.667 -21.333 66.334 -42 101.001
c-10.667 17.333 -22.5 34.166 -35.5 50.499s-27.833 31.833 -44.5 46.5c-33.333 29.333 -79.666 51.333 -138.999 66c-98.667 0 -148 -20.333 -148 -61l-2 -979l-142 -201v1126c0 82.667 -44.333 137.667 -133 165z" />
    <glyph glyph-name="s" unicode="s" horiz-adv-x="769" 
d="M653 860l14.999 -321.004c-9.33301 18 -21.333 38.667 -36 62l-52 79c-39.333 58 -69.666 96.667 -90.999 116c-20.667 18.667 -63.334 32 -128.001 40c-64 8 -118.667 -2.66699 -164 -32c-44.667 -28.667 -74 -60.667 -88 -96c-14 -34 -14.333 -68.667 -1 -104
c12.667 -34.667 33 -64.334 61 -89.001c13.333 -12 30.333 -23.833 51 -35.5s45 -23.167 73 -34.5s55.5 -23.666 82.5 -36.999l81.5 -42c27.333 -14.667 54.333 -30 81 -46s53.334 -33 80.001 -51c53.333 -36 92.666 -79 117.999 -129
c25.333 -51.333 36.666 -105.666 33.999 -162.999c-3.33301 -60 -12.333 -105 -27 -135c-7.33301 -15.333 -16.666 -31 -27.999 -47s-24.333 -32.333 -39 -49c-29.333 -34 -71.333 -66.667 -126 -98c-54.667 -32 -125 -46 -211 -42c-84.667 4 -158.667 30.667 -222 80
c-62.667 48.667 -91.667 80 -87 94s23.667 10.333 57 -11l48.5 -30l45.5 -28c28.667 -18 60.334 -31 95.001 -39c34 -8 75.333 -9.33301 124 -4c47.333 4.66699 86.666 17.667 117.999 39c30 20 53.333 44.333 70 73s31 63 43 103c12 42 7.66699 95.667 -13 161
c-20.667 66.667 -85 127.334 -193 182.001s-198.333 110.334 -271 167.001c-73.333 57.333 -116 110.333 -128 159c-12 48 -12.333 91.333 -1 130c10.667 38 33.334 75.667 68.001 113c34 38 70.667 66 110 84c38.667 17.333 93.667 24 165 20
c70 -4 120.667 -20.667 152 -50s56.333 -45.666 75 -48.999c18 -2.66699 37.333 17.333 58 60z" />
    <glyph glyph-name="t" unicode="t" horiz-adv-x="1109" 
d="M477 773c0 46 -29.668 68.999 -89.001 68.999c-185.333 0 -307.666 -87.667 -366.999 -263l41 260c0.666992 40.667 23 61 67 61h849c40 0 59.667 -20.333 59 -61l42 -259c-58 174.667 -192.333 262 -403 262c-32.667 -5.33301 -49 -27.666 -49 -66.999v-979l-150 -194
v1171z" />
    <glyph glyph-name="u" unicode="u" horiz-adv-x="1006" 
d="M168 743c-2 -470 1.00098 -739 9.00098 -807c8 -68.667 41.333 -127.334 100 -176.001s129.667 -74.334 213 -77.001c84 -3.33301 157 27.667 219 93c31.333 32 55.166 69 71.499 111s24.5 89 24.5 141v765c0 47.333 -48.667 82 -146 104h344
c-97.333 -19.333 -146 -54 -146 -104v-764c0 -47.333 -5.83301 -89.166 -17.5 -125.499s-25.167 -67.833 -40.5 -94.5c-30 -52.667 -71.667 -98.667 -125 -138s-118 -61 -194 -65c-77.333 -4 -145.333 9.66699 -204 41c-61.333 32.667 -109 69 -143 109
c-34.667 40.667 -59 82 -73 124c-7.33301 20.667 -13 43.834 -17 69.501s-6 53.5 -6 83.5v864z" />
    <glyph glyph-name="v" unicode="v" horiz-adv-x="1078" 
d="M1002 907c-32.667 -2 -65.166 -22.333 -97.499 -61s-62.833 -97 -91.5 -175l-406 -1095l-36 250l338 842c63.333 157.333 45.666 237 -53.001 239h346zM407.001 -423l-397 1325l212 -199l238 -768z" />
    <glyph glyph-name="w" unicode="w" horiz-adv-x="1696" 
d="M234 688l237 -770l354 982l370 -980l314 980l85 2l-47 -136l-364 -1162h-26l-341 981l-378 -987h-27l-394 1312z" />
    <glyph glyph-name="x" unicode="x" horiz-adv-x="1291" 
d="M1204 899c-60 -18.667 -118.666 -63.3291 -175.999 -133.996l-656 -1006c-30.667 -46.667 -37.834 -84.334 -21.501 -113.001s54.833 -47.334 115.5 -56.001l-421 -1c48 12.667 90.167 36 126.5 70s70.833 77 103.5 129l630 998c19.333 31.333 20.5 56.166 3.5 74.499
s-53.5 31.166 -109.5 38.499h405zM452.001 899.005c-58 -7.33301 -95.832 -20.1709 -113.499 -38.5039s-16.834 -43.166 2.49902 -74.499l636 -998c55.333 -107.333 132.666 -173.333 231.999 -198h-406c54.667 8.66699 88.834 27.334 102.501 56.001
s5.16699 66.334 -25.5 113.001l-662 1006c-57.333 70.667 -116 115.334 -176 134.001h410z" />
    <glyph glyph-name="y" unicode="y" horiz-adv-x="1221" 
d="M1010 903h156l-1068 -1319l42 232c276 278.667 372.333 465.667 289 561l-390 540l233 -107l316 -438l262 306l154 177zM909 748c73.333 79.333 71.667 131 -5 155h153z" />
    <glyph glyph-name="z" unicode="z" horiz-adv-x="1308" 
d="M1234 902c-80 -33.333 -165.668 -121.667 -257.001 -265l-735 -898c556 -27.333 862 21.667 918 147h34l-107 -296c-635.333 28.667 -981.333 37.667 -1038 27l838 1029c38.667 48 30.834 84.833 -23.499 110.5s-153.166 39.167 -296.499 40.5
c-284.667 2 -462.334 -20 -533.001 -66l152 171h1048z" />
    <glyph glyph-name="braceleft" unicode="{" horiz-adv-x="764" 
d="M694 -411c0 -5.33301 -4.66699 -7.99805 -14 -7.99805h-195c-106.667 0 -188 40.333 -244 121c-48.667 69.333 -73 160.666 -73 273.999c0 68 11.667 148 35 240s35 170 35 234c0 32.667 -17.333 62.334 -52 89.001c-31.333 24 -62 36 -92 36c-27.333 0 -41 11 -41 33
s13.667 33 41 33c32 0 62.667 8.66699 92 26c34.667 20.667 52 46.667 52 78c0 63.333 -11.667 136 -35 218s-35 157.667 -35 227c0 105.333 28.667 196.333 86 273c61.333 81.333 138.333 122 231 122h195c9.33301 0 14 -2.66699 14 -8v-33c0 -8 -4 -12 -12 -12h-131
c-78 0 -139.333 -41 -184 -123c-40 -73.333 -60 -163.666 -60 -270.999c0 -34 1.83301 -68.833 5.5 -104.5s9.5 -72.834 17.5 -111.501c16 -77.333 24 -135 24 -173c0 -70.667 -50.333 -118.334 -151 -143.001l44 -26l44 -26c42 -31.333 63 -67.333 63 -108
c0 -38 -8 -101 -24 -189c-8 -44 -13.833 -85 -17.5 -123s-5.5 -74 -5.5 -108c0 -110.667 18 -200.334 54 -269.001c42.667 -82 106 -123 190 -123h131c8 0 12 -4 12 -12v-33z" />
    <glyph glyph-name="bar" unicode="|" horiz-adv-x="590" 
d="M334 -362c0 -12 -5.66699 -21.666 -17 -28.999c-12 -8 -25.667 -8 -41 0c-13.333 7.33301 -20 17 -20 29c0.666992 73.333 1.5 185.166 2.5 335.499s1.5 339.833 1.5 568.5c0 248.667 -0.333008 451 -1 607s-1.66699 266.333 -3 331c0 12 6.66699 21.667 20 29
c15.333 8 29 8 41 0c11.333 -7.33301 17 -17 17 -29v-1842z" />
    <glyph glyph-name="braceright" unicode="}" horiz-adv-x="704" 
d="M677 608c0 -22 -13.665 -33 -40.998 -33c-30 0 -60.333 -12 -91 -36c-34.667 -26.667 -52 -56.334 -52 -89.001c0 -64 11.667 -142 35 -234s35 -172 35 -240c0 -111.333 -24.667 -202.666 -74 -273.999c-56 -80.667 -137.333 -121 -244 -121h-194
c-10 0 -15 2.66699 -15 8v33c0 8 4.33301 12 13 12h131c82.667 0 145.667 41 189 123c36 69.333 54 159 54 269c0 66.667 -8 143.667 -24 231c-8 44 -13.833 81.667 -17.5 113s-5.5 56.666 -5.5 75.999c0 41.333 21.333 77.333 64 108l44 26l44 26
c-101.333 25.333 -152 73 -152 143c0 19.333 1.83301 43.333 5.5 72s9.5 62.334 17.5 101.001c16 76.667 24 148.667 24 216c0 108.667 -19.667 199 -59 271c-44 82 -105.333 123 -184 123h-131c-8.66699 0 -13 4 -13 12v33c0 5.33301 5 8 15 8h194
c93.333 0 170.666 -40.667 231.999 -122c57.333 -76.667 86 -167.667 86 -273c0 -69.333 -11.667 -145 -35 -227s-35 -154.667 -35 -218c0 -31.333 17.333 -57.333 52 -78c29.333 -17.333 59.666 -26 90.999 -26c27.333 0 41 -11 41 -33z" />
    <glyph glyph-name="asciitilde" unicode="~" horiz-adv-x="596" 
d="M582 512c2.66699 -8 -1.66895 -20.332 -13.002 -36.999c-38 -56 -96 -84 -174 -84c-39.333 0 -80.333 11.667 -123 35c-71.333 39.333 -121.666 59 -150.999 59c-19.333 0 -37.666 -8.66699 -54.999 -26c-3.33301 -4.66699 -7.33301 -9.5 -12 -14.5l-15 -16.5
c-8.66699 -2.66699 -17 7.66602 -25 30.999c-4 7.33301 -0.333008 19.666 11 36.999c36 56 94 84 174 84c32 0 72 -11.667 120 -35c80.667 -40 132 -60 154 -60c20.667 0 39 9 55 27c3.33301 4 7.33301 8.5 12 13.5l17 17.5c4.66699 2.66699 13 -7.66602 25 -30.999z" />
    <glyph glyph-name="uni00A0" unicode="&#xa0;" horiz-adv-x="512" 
 />
    <glyph glyph-name="exclamdown" unicode="&#xa1;" horiz-adv-x="682" 
d="M63 1735c0 12 2.5 23.167 7.5 33.5s11.833 19.5 20.5 27.5s18.5 14.167 29.5 18.5s22.5 6.5 34.5 6.5c61.333 0 92 -28.667 92 -86c0 -64 -36.667 -96 -110 -96c-49.333 0 -74 32 -74 96zM353 -397l-251.998 285.999c-4.66699 52.667 -8.66699 154 -12 304
s-6 349.667 -8 599c-2.66699 249.333 -4.33398 436 -5.00098 560s-1 185.667 -1 185c0 22 8.66699 33 26 33c-2.66699 0 26.666 -34 87.999 -102l76 -84.5l42 -49.5c-39.333 -17.333 -57 -57.666 -53 -120.999c2 -32 3.66699 -111.5 5 -238.5s2.33301 -303.167 3 -528.5
c2 -447.333 32.333 -728.333 91 -843z" />
    <glyph glyph-name="cent" unicode="&#xa2;" horiz-adv-x="903" 
d="M368 436l191.002 629.001c-4.66699 4.66699 -10.167 9.66699 -16.5 15s-13.833 10.666 -22.5 15.999c-8 1.33301 -17.833 2.33301 -29.5 3s-25.167 1 -40.5 1c-36.667 0 -60.334 -1.33301 -71.001 -4c-48.667 -10.667 -86.334 -32 -113.001 -64
c-46.667 -54.667 -70 -138 -70 -250c0 -116.667 37.667 -215.667 113 -297c9.33301 -10 19 -19 29 -27s20 -15.333 30 -22zM788.002 463.001c0 -8.66699 -15 -24.334 -45 -47.001c-95.333 -75.333 -199 -113 -311 -113c-13.333 0 -25 0.166992 -35 0.5
s-18.333 0.833008 -25 1.5l-40 -137l-46 6l41 139l-51 21c-30 12 -57 31.833 -81 59.5s-46.667 61.167 -68 100.5c-34 60.667 -51 137 -51 229c0 64 7.33301 122 22 174c20.667 72.667 57.667 132 111 178c58.667 52 140.334 78 245.001 78
c46.667 0 88.334 -6.66699 125.001 -20l60 188l35 -6l-60 -199c25.333 -12 50.666 -30.333 75.999 -55c35.333 -33.333 53 -63.333 53 -90c0 -28.667 -11.667 -43 -35 -43c-31.333 0 -62 15 -92 45c-6.66699 6.66699 -12.667 13.334 -18 20.001s-10.333 13.667 -15 21
l-176 -596c26 -8 74 -12 144 -12c75.333 0 138.666 18.333 189.999 55l25 18c4 1.33301 8 2 12 2c6.66699 -6 10 -12 10 -18z" />
    <glyph glyph-name="sterling" unicode="&#xa3;" horiz-adv-x="1027" 
d="M375 139c-53.333 53.333 -102 80 -146 80c-78.667 0 -121.667 -26.667 -129 -80c-2 -62.667 34.333 -94 109 -94c60 0 115.333 31.333 166 94zM982 203c0 -27.333 -5.33594 -51.835 -16.0029 -73.502s-26 -40 -46 -55s-44.167 -26.667 -72.5 -35
s-60.166 -12.5 -95.499 -12.5c-144.667 0 -258 42.333 -340 127c-68 -70.667 -137 -106 -207 -106c-123.333 0 -180 48.333 -170 145c5.33301 45.333 28 82.333 68 111c40.667 28.667 87 43 139 43c68.667 0 134.667 -19 198 -57c14.667 38 23.334 88.333 26.001 151
c2.66699 54 -8 118 -32 192c-24.667 -1.33301 -52.5 -3.16602 -83.5 -5.49902s-65.5 -5.83301 -103.5 -10.5c-12.667 -1.33301 -19.334 2 -20.001 10c-8 20 -11.667 37.667 -11 53c0.666992 10 4.66699 15 12 15l177 1l-10.5 21.5c-4.33301 9 -10.166 19.5 -17.499 31.5
c-28 48 -49 94 -63 138s-21 87 -21 129v13.5c0 4.33301 0.333008 8.16602 1 11.499c12.667 108.667 51.667 195 117 259c62 62 139.667 93.667 233 95c85.333 0.666992 158.666 -21 219.999 -65c26.667 -18.667 51 -43.667 73 -75c26 -36 37.667 -64.333 35 -85
c-0.666992 -1.33301 -3.5 -4.66602 -8.5 -9.99902s-9.5 -8.33301 -13.5 -9c-2 0 -7 6.33301 -15 19c-57.333 90 -128.333 134.667 -213 134c-65.333 -0.666992 -113.666 -9.66699 -144.999 -27c-34.667 -20 -64.334 -51 -89.001 -93c-38.667 -52 -55 -124.333 -49 -217
c1.33301 -30 7 -62.833 17 -98.5s23.667 -75.167 41 -118.5c2.66699 -5.33301 5.83398 -12.5 9.50098 -21.5l12.5 -31.5l293 -6c6 0 8.66699 -4 8 -12c-1.33301 -18.667 -3 -30.334 -5 -35.001c0 -5.33301 -3 -8 -9 -8l-267 -2c20.667 -57.333 28 -105.666 22 -144.999
c-15.333 -109.333 -39.333 -185.333 -72 -228l153 -104c30 -20 58 -34.5 84 -43.5s49.667 -13.5 71 -13.5c83.333 0 125 32.333 125 97c0 47.333 -36.667 71 -110 71c-44 0 -76.333 -16 -97 -48c-11.333 -17.333 -22.666 -26 -33.999 -26c-14.667 0 -22 6.66699 -22 20
c0.666992 2.66699 2.33398 5.33398 5.00098 8.00098c2 2.66699 4.33301 6 7 10s6 8.66699 10 14c12.667 18 33.667 34 63 48c29.333 14.667 56.666 22 81.999 22c104 0 156 -37.667 156 -113z" />
    <glyph glyph-name="currency" unicode="&#xa4;" 
 />
    <glyph glyph-name="yen" unicode="&#xa5;" 
 />
    <glyph glyph-name="brokenbar" unicode="&#xa6;" 
 />
    <glyph glyph-name="section" unicode="&#xa7;" horiz-adv-x="860" 
d="M713 479c0 80.667 -48.666 165.331 -145.999 253.998l-82.5 75l-113.5 105c-50 47.333 -75 104 -75 170c0 10 0.5 20.167 1.5 30.5s2.83301 20.833 5.5 31.5c2 9.33301 5 19.5 9 30.5s8.66699 23.167 14 36.5c-117.333 -71.333 -176 -178.333 -176 -321
c0 -82 47.667 -166.667 143 -254l83.5 -74c33.667 -29.333 72.167 -64.666 115.5 -105.999c22 -21.333 39.667 -45.5 53 -72.5s22.666 -56.833 27.999 -89.5c-27.333 -56 -45 -105.333 -53 -148c128.667 62.667 193 173.334 193 332.001zM793.001 523.997
c0 -122 -35.668 -226.666 -107.001 -313.999c-81.333 -99.333 -192 -149 -332 -149c-62 0 -117.333 9 -166 27c-51.333 19.333 -77 50 -77 92c0 29.333 21.667 44 65 44c18 0 34 -2.33301 48 -7c14.667 -4 42.334 -19.667 83.001 -47c35.333 -23.333 62 -35 80 -35
c58.667 0 88 20.667 88 62c0 10 -20.333 34.333 -61 73l-129 121c-80.667 75.333 -139.5 149.5 -176.5 222.5s-55.5 143.5 -55.5 211.5c0 124 35.333 229.667 106 317c80.667 100 190 150 328 150c64.667 0 122.334 -10.667 173.001 -32c50 -21.333 75 -51 75 -89
c0 -30.667 -22 -46 -66 -46c-18 0 -34 2.33301 -48 7c-16 5.33301 -43.333 23.333 -82 54c-35.333 27.333 -62 41 -80 41c-42.667 0 -71.334 -2 -86.001 -6c0 -50 62.667 -137.667 188 -263c154.667 -152.667 232 -297.334 232 -434.001z" />
    <glyph glyph-name="dieresis" unicode="&#xa8;" horiz-adv-x="545" 
d="M205 1159c0 -31.333 -14.334 -59 -43.001 -83c-25.333 -21.333 -48.666 -32 -69.999 -32c-39.333 0 -59 20 -59 60c0 22 10 45 30 69c24 29.333 53.667 44 89 44s53 -19.333 53 -58zM509.999 1159c0 -31.333 -14.333 -59 -43 -83c-24.667 -21.333 -48 -32 -70 -32
c-39.333 0 -59 20 -59 60c0 22 10 45 30 69c24 29.333 53.667 44 89 44s53 -19.333 53 -58z" />
    <glyph glyph-name="copyright" unicode="&#xa9;" horiz-adv-x="1106" 
d="M778 596c-26 -32 -58.6689 -55.9961 -98.002 -71.9961c-41.333 -17.333 -91.333 -26 -150 -26c-84.667 0 -152.667 28.667 -204 86c-46.667 50.667 -70 129 -70 235c0 58 13.667 118 41 180c21.333 48 53.333 87.667 96 119c58.667 42.667 132.334 64 221.001 64
c19.333 0 36.5 -0.333008 51.5 -1s28.167 -1.66699 39.5 -3c28.667 -4 49 -9 61 -15c2.66699 -0.666992 4 -2 4 -4c0 -2.66699 -2 -20.334 -6 -53.001c0 -20.667 -1.33301 -36.334 -4 -47.001c-1.33301 -5.33301 -2.66602 -8 -3.99902 -8s-2 1.33301 -2 4
c-2.66699 4.66699 -4.66699 10 -6 16c-6.66699 12 -18.334 23 -35.001 33c-29.333 17.333 -73.666 26 -132.999 26c-62 0 -119.333 -26.333 -172 -79c-48 -48 -72 -120.333 -72 -217c0 -99.333 23.333 -173.333 70 -222c49.333 -51.333 108.666 -77 177.999 -77
c22 0 51.333 8.66699 88 26c21.333 15.333 40.333 36.666 57 63.999c8.66699 19.333 13.334 33.666 14.001 42.999c0 5.33301 0.666992 8 2 8l3 -4l20 -41c4.66699 -14 8 -23 10 -27l2 -4zM994.998 838.004c0 126.667 -42.333 234.333 -127 323s-189.667 133 -315 133
c-126 0 -231.333 -44.333 -316 -133c-85.333 -89.333 -128 -197 -128 -323c0 -126.667 42.667 -234.667 128 -324c84.667 -88.667 190 -133 316 -133c125.333 0 230.333 44.333 315 133s127 196.667 127 324zM1047 838.003c0 -136.667 -48.334 -253.334 -145.001 -350.001
c-97.333 -96 -213.666 -144 -348.999 -144c-136 0 -252.333 48 -349 144c-96.667 96.667 -145 213.334 -145 350.001c0 136 48.333 252 145 348c96.667 96.667 213 145 349 145s252.333 -48.333 349 -145c96.667 -96 145 -212 145 -348z" />
    <glyph glyph-name="ordfeminine" unicode="&#xaa;" horiz-adv-x="588" 
d="M578 662l0.00195312 -19.001c0 -5.33301 -0.333008 -9.5 -1 -12.5s-2.5 -5.16699 -5.5 -6.5s-7.66699 -2.16602 -14 -2.49902s-14.833 -0.5 -25.5 -0.5h-434c-10.667 0 -19 0.166992 -25 0.5s-10.5 1 -13.5 2s-4.83301 2.83301 -5.5 5.5s-1 6.66699 -1 12v21
c0 12.667 8 19.667 24 21c-1.33301 0 1.16699 0 7.5 0s17.166 -0.333008 32.499 -1c133.333 -2 265.666 -2 396.999 0c42.667 0.666992 64 -6 64 -20zM360.002 1059c0 2.66699 -1.33398 4 -4.00098 4c-35.333 0 -72 -9 -110 -27c-66 -30 -99 -70.333 -99 -121
c0 -32 6.16699 -52.833 18.5 -62.5s32.166 -14.5 59.499 -14.5c34.667 0 72.334 16.333 113.001 49c4.66699 4.66699 9.33398 14 14.001 28c2.66699 23.333 4.66699 47 6 71s2 48.333 2 73zM578.001 814.999c-1.33301 -3.33301 -4.33398 -7.33203 -9.00098 -11.999
c-9.33301 -11.333 -18.333 -20.833 -27 -28.5s-17.334 -13.834 -26.001 -18.501c-3.33301 -5.33301 -8.66602 -8 -15.999 -8c-27.333 0 -54.666 12.667 -81.999 38c-26.667 26 -43 53.333 -49 82c-22.667 -32 -49.334 -56.333 -80.001 -73c-47.333 -26 -87 -39 -119 -39
c-33.333 0 -59.333 6.66699 -78 20c-26 20 -39 48.667 -39 86c0 47.333 13 89 39 125c19.333 26.667 50.666 49.834 93.999 69.501s101.333 36.834 174 51.501c3.33301 0 5 2.66699 5 8v133c-6 22.667 -15.667 37.667 -29 45c-17.333 10 -40.666 15 -69.999 15
c-46.667 0 -76.667 -4.33301 -90 -13c-6.66699 -4.66699 -10 -9.33398 -10 -14.001c0 -1.33301 0.333008 -3 1 -5c0 -1.33301 0.166992 -3.33301 0.5 -6s0.5 -5.66699 0.5 -9c0.666992 -19.333 -4.66602 -38 -15.999 -56c-14 -27.333 -34.667 -41 -62 -41
c-19.333 0 -29 13 -29 39c0 17.333 10 39 30 65c19.333 26 41.666 46.667 66.999 62c42.667 26 101.334 39 176.001 39c53.333 0 89.333 -10.333 108 -31c19.333 -16 29 -48.667 29 -98c0 -34.667 -2 -86.334 -6 -155.001c-4 -69.333 -6 -108.333 -6 -117
c0 -41.333 11 -75 33 -101c16.667 -20 39.667 -33 69 -39c11.333 -8 17 -12.667 17 -14z" />
    <glyph glyph-name="guillemotleft" unicode="&#xab;" horiz-adv-x="829" 
d="M473 223l-12 -24.002c-6.66699 -8.66699 -12.334 -13 -17.001 -13c-3.33301 0.666992 -15.333 7.66699 -36 21l-95 77l-174 146c-16 14 -24.667 25 -26 33l-4 49c-1.33301 10.667 4.66699 21.667 18 33c22.667 28.667 65.334 72.334 128.001 131.001l85 81
c22.667 22.667 40.334 41.334 53.001 56.001c12 18 22.333 27 31 27l10.5 -5c4.33301 -2 9.16602 -4.66699 14.499 -8c6 -9.33301 9.33301 -16 10 -20c0 -1.33301 -6.33301 -12.333 -19 -33l-101 -132l-103 -136l-13 -17l19 -24c18 -23.333 44 -52.333 78 -87l126 -124
c18 -12 27 -22.333 27 -31zM759 230.998l-12.0029 -24c-5.33301 -8.66699 -11 -12.334 -17 -11.001c-6.66699 0 -18.667 6.33301 -36 19l-95 77l-174 146c-16 14 -24.667 25 -26 33l-4 49c-1.33301 10.667 4.66699 21.667 18 33
c22.667 28.667 65.334 72.334 128.001 131.001l85 81c22.667 22.667 40.334 41.334 53.001 56.001c12 18 22.333 27 31 27l10 -5c4 -2 8.66699 -4.66699 14 -8c6.66699 -8.66699 10.334 -15.334 11.001 -20.001c0 -1.33301 -6.33301 -12.333 -19 -33l-102.5 -130.5
c-34.333 -43.667 -68.5 -89.5 -102.5 -137.5l-12 -17l19 -24c18 -23.333 44 -52.333 78 -87l126 -124c18 -12 27 -22.333 27 -31z" />
    <glyph glyph-name="logicalnot" unicode="&#xac;" horiz-adv-x="987" 
d="M799 604c-1.33301 -11.333 -5.66699 -23.667 -13 -37l-2 -248c0 -13.333 -20.667 -20 -62 -20c-38 0 -57 4.66699 -57 14c0 5.33301 0.166992 29 0.5 71l1.5 183l-501 2c-14 0 -21 8.33301 -21 25c0 16 9 33 27 51l606 -4c14.667 -14 21.667 -26.333 21 -37z" />
    <glyph glyph-name="uni00AD" unicode="&#xad;" horiz-adv-x="698" 
d="M632 709c-7.33301 -14.667 -16.332 -22.332 -26.999 -22.999c-2 -0.666992 -83.333 -5 -244 -13c-80.667 -4 -142.5 -6.83301 -185.5 -8.5s-67.833 -2.5 -74.5 -2.5h-30c-8 2 -8 12.667 0 32l5 11.5c1.33301 3 2.66602 5.16699 3.99902 6.5c4 4 9.66699 6.33301 17 7
c0.666992 0 21.834 1 63.501 3s104.5 4.66699 188.5 8c82.667 3.33301 145.167 5.66602 187.5 6.99902s65.166 2 68.499 2c14.667 0 23.667 -0.666992 27 -2c4.66699 -2 4.66699 -11.333 0 -28z" />
    <glyph glyph-name="registered" unicode="&#xae;" horiz-adv-x="1106" 
d="M323 1148c42 -13.333 63 -39.3389 63 -78.0059v-536l67 96l2 466c0 18.667 23.333 28.334 70 29.001c28.667 -7.33301 50.667 -18 66 -32s28 -29.333 38 -46c13.333 -22.667 21.166 -46.667 23.499 -72s-3.83398 -47.666 -18.501 -66.999c-8 -12 -17.333 -22.667 -28 -32
c-8.66699 -8 -17 -13.667 -25 -17c-3.33301 -1.33301 -9.5 -2.5 -18.5 -3.5s-20.833 -0.833008 -35.5 0.5c-21.333 0.666992 -36 0.166992 -44 -1.5s-12.333 -4 -13 -7s1 -6.16699 5 -9.5s7 -6 9 -8c4.66699 -3.33301 11.667 -5.33301 21 -6s20.333 -4.66699 33 -12
s22.334 -16.666 29.001 -27.999c4.66699 -8 10.334 -19.333 17.001 -34s13.5 -30.5 20.5 -47.5l20 -50.5c6.33301 -16.667 11.5 -31 15.5 -43c4.66699 -16.667 9.33398 -30 14.001 -40c4.66699 -8.66699 11.167 -17.5 19.5 -26.5s18.5 -13.167 30.5 -12.5
c8.66699 2 17.667 3.33301 27 4s18.333 2.83398 27 6.50098s16.834 9.5 24.501 17.5s14.167 20 19.5 36c-12.667 -0.666992 -21.334 -3.5 -26.001 -8.5s-11.334 -7.83301 -20.001 -8.5c-8 -0.666992 -14.167 1.66602 -18.5 6.99902l-13.5 17
c-4 6.66699 -7.83301 16.834 -11.5 30.501s-12.167 34.834 -25.5 63.501c-6.66699 14.667 -13.834 28.167 -21.501 40.5s-16.167 23.5 -25.5 33.5l-37 40c-6 8 -9.66699 14.667 -11 20c-2 6.66699 -0.833008 11.334 3.5 14.001s9.16602 4.66699 14.499 6
c4.66699 0.666992 11.834 3.33398 21.501 8.00098s19.667 10.5 30 17.5s20.333 15.167 30 24.5s17.167 19.333 22.5 30c7.33301 14.667 11.666 36 12.999 64c1.33301 28.667 -5 54.334 -19 77.001c-13.333 23.333 -32 40.666 -56 51.999
c-11.333 5.33301 -22.666 9.66602 -33.999 12.999s-22.666 6.33301 -33.999 9c-10.667 2 -37.667 3.5 -81 4.5s-103.333 0.833008 -180 -0.5zM995 837.994c0 126.667 -42.333 234.333 -127 323s-189.667 133 -315 133c-126 0 -231.333 -44.333 -316 -133
c-85.333 -89.333 -128 -197 -128 -323c0 -126.667 42.667 -234.667 128 -324c84.667 -88.667 190 -133 316 -133c125.333 0 230.333 44.333 315 133s127 196.667 127 324zM1047 837.993c0 -136.667 -48.334 -253.334 -145.001 -350.001
c-97.333 -96 -213.666 -144 -348.999 -144c-136 0 -252.333 48 -349 144c-96.667 96.667 -145 213.334 -145 350.001c0 136 48.333 252 145 348c96.667 96.667 213 145 349 145s252.333 -48.333 349 -145c96.667 -96 145 -212 145 -348z" />
    <glyph glyph-name="uni00AF" unicode="&#xaf;" 
 />
    <glyph glyph-name="degree" unicode="&#xb0;" horiz-adv-x="578" 
d="M420 1182c0 36 -13 67.667 -39 95c-26 26.667 -56.667 40 -92 40c-36 0 -67 -13.333 -93 -40c-25.333 -27.333 -38 -59 -38 -95s12.667 -67.333 38 -94c26 -26 57 -39 93 -39s66.667 13 92 39c26 26 39 57.333 39 94zM471 1182c0 -50.667 -18 -93.333 -54 -128
c-35.333 -35.333 -78 -53 -128 -53s-93.333 17.667 -130 53c-35.333 35.333 -53 78 -53 128s18 92.667 54 128c36 36 79 54 129 54c49.333 0 92 -18 128 -54s54 -78.667 54 -128z" />
    <glyph glyph-name="plusminus" unicode="&#xb1;" horiz-adv-x="987" 
d="M788 168c0 -24 -4.99707 -36 -14.9971 -36h-101.5c-50.333 0 -117.5 0.333008 -201.5 1c-83.333 0.666992 -149.333 1.16699 -198 1.5s-80.334 0.5 -95.001 0.5c-14 0 -21 7.66699 -21 23c0 31.333 9 47 27 47c19.333 0 54 -0.166992 104 -0.5
s116.333 -0.833008 199 -1.5c83.333 -0.666992 148.166 -1.16699 194.499 -1.5s75.166 -0.5 86.499 -0.5c14 0 21 -11 21 -33zM799.003 627c0 -41.333 -4.99707 -62 -14.9971 -62c4 0 0 0 -12 0s-32.333 0.333008 -61 1s-56.834 1 -84.501 1h-83.5v-80
c0 -26.667 -0.333008 -54 -1 -82s-1 -48.333 -1 -61s0 -17.667 0 -15c0 -13.333 -20.667 -20 -62 -20c-38 0 -57 4.66699 -57 14c0 -2 0 3.5 0 16.5s0.333008 33.833 1 62.5s1 56.667 1 84v81c-25.333 0 -52.333 0.166992 -81 0.5s-59 0.833008 -91 1.5s-55 1.16699 -69 1.5
s-19.667 0.5 -17 0.5c-14 0 -21 13 -21 39c0 20 3.33301 38.667 10 56c6 16 11.667 24 17 24c-1.33301 0 5.16699 0 19.5 0s36.5 -0.333008 66.5 -1s58.833 -1 86.5 -1h79.5c0 26.667 0.166992 54.167 0.5 82.5s0.833008 57.833 1.5 88.5s1.16699 53 1.5 67
s0.5 19.333 0.5 16c0 14 13 21 39 21c8.66699 0 17.167 -0.833008 25.5 -2.5s17.166 -4.16699 26.499 -7.5c18.667 -6.66699 28 -12.334 28 -17.001c0 -2 -0.166992 -10.333 -0.5 -25l-1.5 -64c-0.666992 -28 -1.16699 -55.167 -1.5 -81.5s-0.5 -52.166 -0.5 -77.499
c27.333 0 54.166 -0.166992 80.499 -0.5s52.833 -0.833008 79.5 -1.5s46.167 -1.16699 58.5 -1.5s17.833 -0.5 16.5 -0.5c14 0 21 -19 21 -57z" />
    <glyph glyph-name="uni00B2" unicode="&#xb2;" 
 />
    <glyph glyph-name="uni00B3" unicode="&#xb3;" 
 />
    <glyph glyph-name="acute" unicode="&#xb4;" horiz-adv-x="545" 
d="M463 1198c-7.33301 -7.33301 -20.332 -16.333 -38.999 -27c-46.667 -26.667 -96.5 -53.5 -149.5 -80.5l-168.5 -86.5c-15.333 -7.33301 -27 -12 -35 -14s-13.333 0.333008 -16 7c-6.66699 14 -1.66699 27 15 39l221 172c11.333 8 21.666 11.667 30.999 11
c16.667 -2.66699 36.167 -4.5 58.5 -5.5s48.5 -1.5 78.5 -1.5c12 0 13.333 -4.66699 4 -14z" />
    <glyph glyph-name="uni00B5" unicode="&#xb5;" horiz-adv-x="1083" 
d="M1016 41c0 -6.66699 -3.00098 -11.333 -9.00098 -14l-63 -27l-31 -19c-4 -4.66699 -10 -7 -18 -7c0.666992 0 -1.33301 1.16699 -6 3.5s-11.667 6.16602 -21 11.499c-18 10 -34 27.5 -48 52.5s-26.667 56.833 -38 95.5c-3.33301 12 -10 13.333 -20 4
c-3.33301 -2.66699 -21.166 -13.5 -53.499 -32.5l-141.5 -83.5c-41.333 -24 -110.333 -36 -207 -36c-24 0 -45.667 7.66699 -65 23c10 -168 12 -284.667 6 -350c-1.33301 -10 -6 -20 -14 -30c-28.667 -38.667 -59.667 -68 -93 -88
c-7.33301 -5.33301 -18 -11.666 -32 -18.999s-31.333 -15.666 -52 -24.999c-14 -6.66699 -22.667 -4.33398 -26 6.99902c-2 7.33301 0 16.666 6 27.999c29.333 61.333 51.666 154.666 66.999 279.999c7.33301 66.667 13 128.334 17 185.001s6 110 6 160v55v395
c0 168 -13.667 252 -41 252h-119c-9.33301 0 -14 3.33301 -14 10v33c0 6.66699 2.66699 10 8 10h123c3.33301 0 19.666 1 48.999 3c15.333 1.33301 27.333 2.33301 36 3s14.667 1 18 1c24.667 2.66699 42.334 4.66699 53.001 6s14.667 2 12 2c11.333 0 17 -9 17 -27
c0 -1.33301 -1 -103.333 -3 -306c-0.666992 -101.333 -1.16699 -179.333 -1.5 -234s-0.5 -86.334 -0.5 -95.001c0 -62.667 14 -106 42 -130c24.667 -21.333 65.334 -32 122.001 -32c65.333 0 159 27.333 281 82c6.66699 0 10 5.66699 10 17v514
c0 92.667 -13.667 139 -41 139h-129c-8 0 -12 3.33301 -12 10v33c0 6.66699 2.66699 10 8 10h139c20.667 0 39.5 0.666992 56.5 2s32.833 3 47.5 5c19.333 3.33301 34 5.5 44 6.5s15.333 1.5 16 1.5c9.33301 0 14 -9.66699 14 -29
c0 -1.33301 -0.166992 -28.166 -0.5 -80.499l-1.5 -234.5l-1.5 -237c-0.333008 -54 -0.5 -83.667 -0.5 -89c0 -93.333 30.667 -159.666 92 -198.999c8.66699 -4.66699 13 -10 13 -16z" />
    <glyph glyph-name="paragraph" unicode="&#xb6;" horiz-adv-x="1028" 
d="M797 1290c-18.667 2.66699 -55.666 2 -110.999 -2c0.666992 -54.667 1.16699 -117.834 1.5 -189.501s0.5 -152.5 0.5 -242.5c0 -15.333 0.166992 -37.5 0.5 -66.5s0.833008 -64.833 1.5 -107.5c2 -85.333 3 -151.666 3 -198.999c0 -250 -20 -390 -60 -420
c77.333 18 126.666 117.667 147.999 299c8 64.667 12 183 12 355c0 168 0.333008 299.5 1 394.5s1.66699 154.5 3 178.5zM618.001 680v38.5029c0 23 -0.333008 56.5 -1 100.5s-1 77.833 -1 101.5v40.5c0 169.333 -2 271.666 -6 306.999
c-0.666992 3.33301 -1.16699 6.66602 -1.5 9.99902s-1.16602 6.66602 -2.49902 9.99902c-2.66699 0.666992 -8 1.16699 -16 1.5s-19 0.5 -33 0.5c-86.667 0 -156.334 -37.333 -209.001 -112c-48 -67.333 -72 -146 -72 -236c0 -108.667 18 -187 54 -235
c34 -46.667 84.333 -70 151 -70c54 0 96.333 8.33301 127 25c6.66699 2.66699 10 8.66699 10 18zM950.001 1347l0.00292969 -33.9961c0 -6 -4.66699 -9 -14 -9h-55c-14 0 -21 -7.66699 -21 -23v-50c0 -22 -0.666992 -75 -2 -159s-2 -199.667 -2 -347
c0 -248.667 -16.667 -419.334 -50 -512.001c-49.333 -135.333 -150.666 -203 -303.999 -203c-60.667 0 -113.334 8 -158.001 24c-45.333 17.333 -68 42.666 -68 75.999c0 30.667 22.333 46 67 46c12.667 0 25 -2 37 -6c12 -2.66699 37.333 -17.334 76 -44.001
c33.333 -23.333 58.666 -35 75.999 -35c57.333 0 86 58.667 86 176v369c0 5.33301 -2.66699 7.33301 -8 6c-57.333 -22.667 -119.333 -34 -186 -34c-114.667 0 -201.334 38 -260.001 114c-61.333 79.333 -92 166.666 -92 261.999c0 90 34 179 102 267
c23.333 29.333 62.333 57 117 83c68.667 32 141 48 217 48c7.33301 0 19.166 -0.166992 35.499 -0.5s37.833 -0.833008 64.5 -1.5s50.5 -1.16699 71.5 -1.5s39.5 -0.5 55.5 -0.5h203c8 0 12 -3.66699 12 -11z" />
    <glyph glyph-name="uni00B7" unicode="&#xb7;" horiz-adv-x="389" 
d="M283 834c0 -12 -2.5 -23.167 -7.5 -33.5s-11.833 -19.5 -20.5 -27.5s-18.667 -14.167 -30 -18.5s-23 -6.5 -35 -6.5c-61.333 0 -92 28.667 -92 86c0 64 37 96 111 96c49.333 0 74 -32 74 -96z" />
    <glyph glyph-name="cedilla" unicode="&#xb8;" horiz-adv-x="545" 
d="M449 -218c0 -40.667 -14.3311 -74.334 -42.998 -101.001c-29.333 -28 -66.333 -42 -111 -42c-50.667 0 -92.334 16.333 -125.001 49c-5.33301 4 -8 9.33301 -8 16c0 1.33301 0.666992 4 2 8c7.33301 10.667 14.666 13.334 21.999 8.00098c38 -20 65.333 -30 82 -30
c66 0 99 36 99 108c0 54.667 -26.667 82 -80 82c-16 0 -31.667 -4.66699 -47 -14c-8 -4.66699 -18.333 -0.666992 -31 12c-8 6.66699 -8 17 0 31l30 42l33 49h37l-45 -75c10 2.66699 20.333 4 31 4c102.667 0 154 -49 154 -147z" />
    <glyph glyph-name="uni00B9" unicode="&#xb9;" 
 />
    <glyph glyph-name="ordmasculine" unicode="&#xba;" horiz-adv-x="653" 
d="M618 662l0.000976562 -19.001c0 -5.33301 -0.333008 -9.5 -1 -12.5s-2.5 -5.16699 -5.5 -6.5s-7.5 -2.16602 -13.5 -2.49902s-14.333 -0.5 -25 -0.5h-491c-11.333 0 -20 0.166992 -26 0.5s-10.333 1 -13 2s-4.33398 2.83301 -5.00098 5.5s-1 6.66699 -1 12v21
c0 10 2.66699 15.667 8 17c6 2 24.333 3 55 3h455c30 0 48 -1 54 -3c6 -1.33301 9 -7 9 -17zM512.001 1026c0 89.333 -21 158.667 -63 208c-42 50 -97.333 75 -166 75c-30.667 0 -50 -1 -58 -3c-17.333 -5.33301 -31.666 -16.666 -42.999 -33.999
c-23.333 -34 -35 -88 -35 -162c0 -80 13 -148.333 39 -205c10.667 -22.667 22.667 -42.334 36 -59.001s28.666 -30 45.999 -40c22 -13.333 48.667 -20 80 -20c18.667 0 35.167 1.33301 49.5 4s26.5 7.66699 36.5 15c13.333 9.33301 24.833 21 34.5 35s18.167 29.667 25.5 47
c12 30.667 18 77 18 139zM618.001 1059c0 -56.667 -9.33398 -108.001 -28.001 -154.001c-23.333 -55.333 -63.666 -98.333 -120.999 -129c-43.333 -23.333 -90.333 -35 -141 -35c-56.667 0 -99.667 6.33301 -129 19c-56.667 23.333 -97.667 62 -123 116
c-26 54.667 -39 113.667 -39 177c0 72.667 14.333 133.334 43 182.001c26.667 46.667 65 82 115 106c40 19.333 93.667 29 161 29c59.333 0 105.333 -10.333 138 -31c42 -26 74 -65.333 96 -118c18.667 -46 28 -100 28 -162z" />
    <glyph glyph-name="guillemotright" unicode="&#xbb;" horiz-adv-x="829" 
d="M424 512l-3.99707 -48.999c-1.33301 -7.33301 -10.333 -18.333 -27 -33l-111 -94l-157 -129c-8.66699 -7.33301 -15.834 -12.333 -21.501 -15s-9.5 -4 -11.5 -4c-4.66699 0 -11.334 3.66699 -20.001 11c-8 8.66699 -12.333 16.667 -13 24c0 8.66699 9 19 27 31
c17.333 14.667 35.166 31 53.499 49s36.833 37.667 55.5 59l59 65.5c16 17 28.333 29.5 37 37.5l18 24l-12 17l-102.5 138l-102.5 130c-12.667 16.667 -18.667 27.667 -18 33l10 20c8.66699 8 17 12.333 25 13c8.66699 0 18.667 -9 30 -27
c12.667 -14.667 30.334 -33.334 53.001 -56.001l85 -81l80 -77c21.333 -21.333 37.666 -39.333 48.999 -54c12.667 -11.333 18.667 -22.333 18 -33zM721.003 512.001l-3.99707 -48.999c-1.33301 -7.33301 -10.333 -18.333 -27 -33l-111 -94l-157 -129
c-8.66699 -7.33301 -15.834 -12.333 -21.501 -15s-9.5 -4 -11.5 -4c-4.66699 0 -11.334 3.66699 -20.001 11c-8 8.66699 -12.333 16.667 -13 24c0 8.66699 9 19 27 31c17.333 14.667 35.166 31 53.499 49s36.833 37.667 55.5 59l59 65.5c16 17 28.333 29.5 37 37.5l18 24
l-12 17c-34 48 -68.167 93.833 -102.5 137.5l-102.5 130.5c-14 16.667 -20 27.667 -18 33l10 20c8.66699 8 17 12.333 25 13c8 0 18 -9 30 -27c12.667 -14.667 30.334 -33.334 53.001 -56.001l85 -81l79.5 -77c21 -21.333 37.167 -39.333 48.5 -54
c13.333 -11.333 19.666 -22.333 18.999 -33z" />
    <glyph glyph-name="onequarter" unicode="&#xbc;" horiz-adv-x="1580" 
d="M424 366l-133.999 -114.002c28 60.667 42.667 212.334 44 455.001c0.666992 122 1.5 220 2.5 294s2.83301 125.333 5.5 154c5.33301 58 -50 55.667 -166 -7c102.667 82 168.667 130.333 198 145c28 14 41.333 21 40 21c8.66699 0 13 -6 13 -18
c0 0.666992 -0.333008 -33.666 -1 -102.999l-3 -313c-1.33301 -140.667 -1.83301 -253.5 -1.5 -338.5s1.16602 -143.5 2.49902 -175.5zM1216 724.998c0 12.667 -7.66992 12.332 -23.0029 -1.00098c-7.33301 -6.66699 -19.166 -19.5 -35.499 -38.5l-65.5 -75.5
c-7.33301 -7.33301 -15.666 -16.666 -24.999 -27.999l-30.5 -35.5l-42.5 -49.5c-59.333 -67.333 -88.666 -102 -87.999 -104s3.66699 -3 9 -3h271c8.66699 0 14 1 16 3s3 5.33301 3 10c0 2.66699 0.5 17.667 1.5 45s2.16699 67 3.5 119c4 104 6 156.667 6 158zM1465 391.996
c0 -3.33301 -2.33398 -10.002 -7.00098 -20.002c-9.33301 -21.333 -20.333 -44.333 -33 -69c-3.33301 -5.33301 -7.66602 -8 -12.999 -8c-14.667 1.33301 -29.167 2.33301 -43.5 3s-28.5 1 -42.5 1c-9.33301 0 -14 -3.66699 -14 -11c0 -2.66699 1 -43 3 -121
c1.33301 -39.333 2.33301 -69.666 3 -90.999s1 -33.666 1 -36.999c0 -14 -4.33301 -22.333 -13 -25c-3.33301 -2 -20.666 -8 -51.999 -18c-35.333 -12 -54.666 -18 -57.999 -18c-12.667 0 -19 6 -19 18c0 1.33301 0.666992 13.833 2 37.5l6 105.5l6 106
c1.33301 24 2 37 2 39c0 8.66699 -5.33301 13 -16 13h-367c-16.667 0 -25 6 -25 18c0 6.66699 2.66699 13.334 8 20.001c10 9.33301 34.667 36.333 74 81l162 188l124.5 144.5l142.5 159.5c12 8 23 12 33 12c9.33301 0 14 -5.33301 14 -16
c0 -1.33301 -1.16699 -22.666 -3.5 -63.999l-10.5 -187l-10.5 -187.5c-2.33301 -41.667 -3.5 -63.834 -3.5 -66.501c0 -8.66699 4 -12.334 12 -11.001c3.33301 0 10.333 0.5 21 1.5s25.667 2.16699 45 3.5s34.166 2.5 44.499 3.5s16.166 1.5 17.499 1.5
c6.66699 0 10 -2 10 -6zM1215 1330.99c2 -3.33301 -3.33301 -14.334 -16 -33.001l-140.5 -199l-313.5 -440l-319.5 -447.5l-141.5 -195.5c-8 -12 -17.667 -20.667 -29 -26c-21.333 4 -33.333 13.667 -36 29c-4 8 1.33301 19.333 16 34l915 1281
c8.66699 12.667 18.667 22 30 28c17.333 -5.33301 29 -15.666 35 -30.999z" />
    <glyph glyph-name="onehalf" unicode="&#xbd;" horiz-adv-x="1580" 
d="M1481 124l18 12c-6.66699 -10.667 -12.834 -21.167 -18.501 -31.5s-11.167 -21.166 -16.5 -32.499l-25 -56c-3.33301 -5.33301 -7 -8 -11 -8h-481h-61c16.667 11.333 31.167 20.666 43.5 27.999s22.166 13.666 29.499 18.999c54.667 36 103.834 73.833 147.501 113.5
s81.834 80.5 114.501 122.5c44.667 58.667 75.667 110.667 93 156c16 42 24 90 24 144c0 59.333 -14.333 104.666 -43 135.999c-32.667 37.333 -71.667 58.666 -117 63.999c-44.667 4.66699 -79.334 4.66699 -104.001 0c-25.333 -5.33301 -58.666 -23.666 -99.999 -54.999
c-42 -31.333 -45.667 -23.333 -11 24c10.667 14.667 23.167 28.5 37.5 41.5s31 24 50 33s41 16.167 66 21.5s53.5 8 85.5 8c67.333 0 121.333 -20.333 162 -61c39.333 -39.333 59 -93.666 59 -162.999c0 -46 -9.66699 -93 -29 -141c-36.667 -91.333 -83 -167 -139 -227
c-63.333 -69.333 -127 -127.666 -191 -174.999c-4 -3.33301 -6 -6.33301 -6 -9c0 -4.66699 5 -7 15 -7h157c94.667 0 168 10.333 220 31c6 1.33301 11.5 2.83301 16.5 4.5s9.83301 4.16699 14.5 7.5zM424 366l-133.999 -114.002c28 60.667 42.667 212.334 44 455.001
c0.666992 122 1.5 220 2.5 294s2.83301 125.333 5.5 154c5.33301 58 -50 55.667 -166 -7c102.667 82 168.667 130.333 198 145c28 14 41.333 21 40 21c8.66699 0 13 -6 13 -18c0 0.666992 -0.333008 -33.666 -1 -102.999l-3 -313
c-1.33301 -140.667 -1.83301 -253.5 -1.5 -338.5s1.16602 -143.5 2.49902 -175.5zM1215 1331c2 -3.33301 -3.33301 -14.334 -16 -33.001l-140.5 -199l-313.5 -440l-319.5 -447.5l-141.5 -195.5c-8 -12 -17.667 -20.667 -29 -26c-21.333 4 -33.333 13.667 -36 29
c-4 8 1.33301 19.333 16 34l915 1281c8.66699 12.667 18.667 22 30 28c17.333 -5.33301 29 -15.666 35 -30.999z" />
    <glyph glyph-name="threequarters" unicode="&#xbe;" horiz-adv-x="1580" 
d="M602 721c0 -76 -44 -146 -132 -210c-56 -40.667 -138.333 -61 -247 -61c-68.667 0 -120.334 12.667 -155.001 38c-6.66699 4.66699 -10 9.33398 -10 14.001c3.33301 10.667 6.66602 18.667 9.99902 24c5.33301 2.66699 13.666 0.333984 24.999 -6.99902
c12.667 -12 52.334 -18 119.001 -18c27.333 0 56.666 4.66699 87.999 14c26 8 56.667 25.667 92 53c29.333 22 49.333 41.333 60 58c16 24.667 24 57 24 97c0 45.333 -27 87.666 -81 126.999c-25.333 18 -79 35 -161 51c-13.333 3.33301 -20 9.33301 -20 18
c0 13.333 6.33301 22 19 26c94.667 28.667 150.334 72 167.001 130c6 18.667 9 39 9 61c0 34 -12 63.667 -36 89c-20.667 22.667 -56 34 -106 34c-57.333 0 -106 -13 -146 -39c-8.66699 -7.33301 -16 -11 -22 -11s-9 9 -9 27c1.33301 4 3.66602 8.33301 6.99902 13
c27.333 29.333 62.333 54 105 74c38.667 18 92.334 27 161.001 27c40.667 0 78.334 -14.333 113.001 -43c39.333 -32 59 -73 59 -123c0 -52.667 -25 -103.334 -75 -152.001l-48 -44c-13.333 -12 -24.666 -20.667 -33.999 -26c-14 -8.66699 -12.667 -14 4 -16
c62.667 -10 112.667 -30.667 150 -62c46.667 -38 70 -92.333 70 -163zM1247 725c0 12.667 -7.66992 12.332 -23.0029 -1.00098c-7.33301 -6.66699 -19.166 -19.5 -35.499 -38.5l-65.5 -75.5c-7.33301 -7.33301 -15.666 -16.666 -24.999 -27.999l-30.5 -35.5l-42.5 -49.5
c-59.333 -67.333 -88.666 -102 -87.999 -104s3.66699 -3 9 -3h271c8.66699 0 14 1 16 3s3 5.33301 3 10c0 2.66699 0.5 17.667 1.5 45s2.16699 67 3.5 119c4 104 6 156.667 6 158zM1496 391.998c0 -3.33301 -2.33398 -10.002 -7.00098 -20.002
c-9.33301 -21.333 -20.333 -44.333 -33 -69c-3.33301 -5.33301 -7.66602 -8 -12.999 -8c-14.667 1.33301 -29.167 2.33301 -43.5 3s-28.5 1 -42.5 1c-9.33301 0 -14 -3.66699 -14 -11c0 -2.66699 1 -43 3 -121c1.33301 -39.333 2.33301 -69.666 3 -90.999
s1 -33.666 1 -36.999c0 -14 -4.33301 -22.333 -13 -25c-3.33301 -2 -20.666 -8 -51.999 -18c-35.333 -12 -54.666 -18 -57.999 -18c-12.667 0 -19 6 -19 18c0 1.33301 0.666992 13.833 2 37.5l6 105.5l6 106c1.33301 24 2 37 2 39c0 8.66699 -5.33301 13 -16 13h-367
c-16.667 0 -25 6 -25 18c0 6.66699 2.66699 13.334 8 20.001c10 9.33301 34.667 36.333 74 81l162 188l124.5 144.5l142.5 159.5c12 8 23 12 33 12c9.33301 0 14 -5.33301 14 -16c0 -1.33301 -1.16699 -22.666 -3.5 -63.999l-10.5 -187l-10.5 -187.5
c-2.33301 -41.667 -3.5 -63.834 -3.5 -66.501c0 -8.66699 4 -12.334 12 -11.001c3.33301 0 10.333 0.5 21 1.5s25.667 2.16699 45 3.5s34.166 2.5 44.499 3.5s16.166 1.5 17.499 1.5c6.66699 0 10 -2 10 -6zM1319 1331c2 -3.33301 -3.33301 -14.334 -16 -33.001l-140.5 -199
l-313.5 -440l-319.5 -447.5l-141.5 -195.5c-8 -12 -17.667 -20.667 -29 -26c-21.333 4 -33.333 13.667 -36 29c-4 8 1.33301 19.333 16 34l915 1281c8.66699 12.667 18.667 22 30 28c17.333 -5.33301 29 -15.666 35 -30.999z" />
    <glyph glyph-name="questiondown" unicode="&#xbf;" horiz-adv-x="696" 
d="M368 1690c0 94 32.667 141 98 141c45.333 0 68 -37.333 68 -112c0 -88 -39 -132 -117 -132c-32.667 0 -49 34.333 -49 103zM37 115c0 147.333 41 299.669 123 457.002c12.667 23.333 44.167 71.333 94.5 144l211.5 294c4 5.33301 7.33301 11.666 10 18.999s4 15.333 4 24
c0 16 -2.66699 32 -8 48c-6.66699 18.667 -13.667 35.5 -21 50.5s-14.666 28.833 -21.999 41.5c-14.667 24.667 -36.334 38 -65.001 40c-10 4.66699 -15 13.334 -15 26.001c0 5.33301 2 14.666 6 27.999c1.33301 2.66699 4.33301 7.33398 9 14.001s11.334 15.667 20.001 27
l51 46c16.667 15.333 27.667 23 33 23c8 0 19.667 -11.667 35 -35c32 -48.667 56.667 -108.667 74 -180c6.66699 -27.333 10 -49.333 10 -66c0 -12.667 -1.33301 -23.334 -4 -32.001s-6.33398 -16.334 -11.001 -23.001c-28 -38 -49.333 -67.833 -64 -89.5l-26 -38.5
c-128 -197.333 -203.667 -324.333 -227 -381c-52 -123.333 -78 -262 -78 -416c0 -45.333 8.33301 -94 25 -146c20 -63.333 46.333 -111.333 79 -144c60 -62 121.333 -93 184 -93c2 0 5.5 0.166992 10.5 0.5s10.333 0.833008 16 1.5s10.667 1.16699 15 1.5
s7.16602 0.5 8.49902 0.5c12 0 18 -7.33301 18 -22c0 -7.33301 -4 -20 -12 -38c-18.667 -40.667 -33 -66 -43 -76c-4.66699 -10.667 -13 -17.667 -25 -21c-22 -6.66699 -49.333 -10 -82 -10c-105.333 0 -190.666 59.667 -255.999 179c-52 94.667 -78 210 -78 346z" />
    <glyph glyph-name="Agrave" unicode="&#xc0;" 
 />
    <glyph glyph-name="Aacute" unicode="&#xc1;" 
 />
    <glyph glyph-name="Acircumflex" unicode="&#xc2;" 
 />
    <glyph glyph-name="Atilde" unicode="&#xc3;" 
 />
    <glyph glyph-name="Adieresis" unicode="&#xc4;" 
 />
    <glyph glyph-name="Aring" unicode="&#xc5;" 
 />
    <glyph glyph-name="AE" unicode="&#xc6;" 
 />
    <glyph glyph-name="Ccedilla" unicode="&#xc7;" 
 />
    <glyph glyph-name="Egrave" unicode="&#xc8;" 
 />
    <glyph glyph-name="Eacute" unicode="&#xc9;" 
 />
    <glyph glyph-name="Ecircumflex" unicode="&#xca;" 
 />
    <glyph glyph-name="Edieresis" unicode="&#xcb;" 
 />
    <glyph glyph-name="Igrave" unicode="&#xcc;" 
 />
    <glyph glyph-name="Iacute" unicode="&#xcd;" 
 />
    <glyph glyph-name="Icircumflex" unicode="&#xce;" 
 />
    <glyph glyph-name="Idieresis" unicode="&#xcf;" 
 />
    <glyph glyph-name="Eth" unicode="&#xd0;" 
 />
    <glyph glyph-name="Ntilde" unicode="&#xd1;" 
 />
    <glyph glyph-name="Ograve" unicode="&#xd2;" 
 />
    <glyph glyph-name="Oacute" unicode="&#xd3;" 
 />
    <glyph glyph-name="Ocircumflex" unicode="&#xd4;" 
 />
    <glyph glyph-name="Otilde" unicode="&#xd5;" 
 />
    <glyph glyph-name="Odieresis" unicode="&#xd6;" 
 />
    <glyph glyph-name="multiply" unicode="&#xd7;" 
 />
    <glyph glyph-name="Oslash" unicode="&#xd8;" 
 />
    <glyph glyph-name="Ugrave" unicode="&#xd9;" 
 />
    <glyph glyph-name="Uacute" unicode="&#xda;" 
 />
    <glyph glyph-name="Ucircumflex" unicode="&#xdb;" 
 />
    <glyph glyph-name="Udieresis" unicode="&#xdc;" 
 />
    <glyph glyph-name="Yacute" unicode="&#xdd;" 
 />
    <glyph glyph-name="Thorn" unicode="&#xde;" 
 />
    <glyph glyph-name="germandbls" unicode="&#xdf;" 
 />
    <glyph glyph-name="agrave" unicode="&#xe0;" 
 />
    <glyph glyph-name="aacute" unicode="&#xe1;" 
 />
    <glyph glyph-name="acircumflex" unicode="&#xe2;" 
 />
    <glyph glyph-name="atilde" unicode="&#xe3;" 
 />
    <glyph glyph-name="adieresis" unicode="&#xe4;" 
 />
    <glyph glyph-name="aring" unicode="&#xe5;" 
 />
    <glyph glyph-name="ae" unicode="&#xe6;" 
 />
    <glyph glyph-name="ccedilla" unicode="&#xe7;" 
 />
    <glyph glyph-name="egrave" unicode="&#xe8;" 
 />
    <glyph glyph-name="eacute" unicode="&#xe9;" 
 />
    <glyph glyph-name="ecircumflex" unicode="&#xea;" 
 />
    <glyph glyph-name="edieresis" unicode="&#xeb;" 
 />
    <glyph glyph-name="igrave" unicode="&#xec;" 
 />
    <glyph glyph-name="iacute" unicode="&#xed;" 
 />
    <glyph glyph-name="icircumflex" unicode="&#xee;" 
 />
    <glyph glyph-name="idieresis" unicode="&#xef;" 
 />
    <glyph glyph-name="eth" unicode="&#xf0;" 
 />
    <glyph glyph-name="ntilde" unicode="&#xf1;" 
 />
    <glyph glyph-name="ograve" unicode="&#xf2;" 
 />
    <glyph glyph-name="oacute" unicode="&#xf3;" 
 />
    <glyph glyph-name="ocircumflex" unicode="&#xf4;" 
 />
    <glyph glyph-name="otilde" unicode="&#xf5;" 
 />
    <glyph glyph-name="odieresis" unicode="&#xf6;" 
 />
    <glyph glyph-name="divide" unicode="&#xf7;" 
 />
    <glyph glyph-name="oslash" unicode="&#xf8;" 
 />
    <glyph glyph-name="ugrave" unicode="&#xf9;" 
 />
    <glyph glyph-name="uacute" unicode="&#xfa;" 
 />
    <glyph glyph-name="ucircumflex" unicode="&#xfb;" 
 />
    <glyph glyph-name="udieresis" unicode="&#xfc;" 
 />
    <glyph glyph-name="yacute" unicode="&#xfd;" 
 />
    <glyph glyph-name="thorn" unicode="&#xfe;" 
 />
    <glyph glyph-name="ydieresis" unicode="&#xff;" 
 />
    <glyph glyph-name="Amacron" unicode="&#x100;" 
 />
    <glyph glyph-name="amacron" unicode="&#x101;" 
 />
    <glyph glyph-name="Abreve" unicode="&#x102;" 
 />
    <glyph glyph-name="abreve" unicode="&#x103;" 
 />
    <glyph glyph-name="Aogonek" unicode="&#x104;" 
 />
    <glyph glyph-name="aogonek" unicode="&#x105;" 
 />
    <glyph glyph-name="Cacute" unicode="&#x106;" 
 />
    <glyph glyph-name="cacute" unicode="&#x107;" 
 />
    <glyph glyph-name="Ccircumflex" unicode="&#x108;" 
 />
    <glyph glyph-name="ccircumflex" unicode="&#x109;" 
 />
    <glyph glyph-name="uni010A" unicode="&#x10a;" 
 />
    <glyph glyph-name="uni010B" unicode="&#x10b;" 
 />
    <glyph glyph-name="Ccaron" unicode="&#x10c;" 
 />
    <glyph glyph-name="ccaron" unicode="&#x10d;" 
 />
    <glyph glyph-name="Dcaron" unicode="&#x10e;" 
 />
    <glyph glyph-name="dcaron" unicode="&#x10f;" 
 />
    <glyph glyph-name="uni0110" unicode="&#x110;" 
 />
    <glyph glyph-name="uni0111" unicode="&#x111;" 
 />
    <glyph glyph-name="Emacron" unicode="&#x112;" 
 />
    <glyph glyph-name="emacron" unicode="&#x113;" 
 />
    <glyph glyph-name="Ebreve" unicode="&#x114;" 
 />
    <glyph glyph-name="ebreve" unicode="&#x115;" 
 />
    <glyph glyph-name="uni0116" unicode="&#x116;" 
 />
    <glyph glyph-name="uni0117" unicode="&#x117;" 
 />
    <glyph glyph-name="Eogonek" unicode="&#x118;" 
 />
    <glyph glyph-name="eogonek" unicode="&#x119;" 
 />
    <glyph glyph-name="Ecaron" unicode="&#x11a;" 
 />
    <glyph glyph-name="ecaron" unicode="&#x11b;" 
 />
    <glyph glyph-name="Gcircumflex" unicode="&#x11c;" 
 />
    <glyph glyph-name="gcircumflex" unicode="&#x11d;" 
 />
    <glyph glyph-name="Gbreve" unicode="&#x11e;" 
 />
    <glyph glyph-name="gbreve" unicode="&#x11f;" 
 />
    <glyph glyph-name="uni0120" unicode="&#x120;" 
 />
    <glyph glyph-name="uni0121" unicode="&#x121;" 
 />
    <glyph glyph-name="uni0122" unicode="&#x122;" 
 />
    <glyph glyph-name="uni0123" unicode="&#x123;" 
 />
    <glyph glyph-name="Hcircumflex" unicode="&#x124;" 
 />
    <glyph glyph-name="hcircumflex" unicode="&#x125;" 
 />
    <glyph glyph-name="Hbar" unicode="&#x126;" 
 />
    <glyph glyph-name="hbar" unicode="&#x127;" 
 />
    <glyph glyph-name="Itilde" unicode="&#x128;" 
 />
    <glyph glyph-name="itilde" unicode="&#x129;" 
 />
    <glyph glyph-name="Imacron" unicode="&#x12a;" 
 />
    <glyph glyph-name="imacron" unicode="&#x12b;" 
 />
    <glyph glyph-name="Ibreve" unicode="&#x12c;" 
 />
    <glyph glyph-name="ibreve" unicode="&#x12d;" 
 />
    <glyph glyph-name="Iogonek" unicode="&#x12e;" 
 />
    <glyph glyph-name="iogonek" unicode="&#x12f;" 
 />
    <glyph glyph-name="Idotaccent" unicode="&#x130;" 
 />
    <glyph glyph-name="dotlessi" unicode="&#x131;" horiz-adv-x="545" 
d="M397 1130c0 34 -12.332 63.333 -36.999 88s-54 37 -88 37s-63.333 -12.333 -88 -37s-37 -54 -37 -88c0 -33.333 12.333 -62 37 -86s54 -36 88 -36c33.333 0 62.666 12 87.999 36c24.667 24 37 52.667 37 86zM455.001 1130c0 -50.667 -18 -93.333 -54 -128
c-34.667 -34.667 -77.667 -52 -129 -52c-50.667 0 -93.667 17.333 -129 52c-35.333 35.333 -53 78 -53 128c0 50.667 17.667 93.667 53 129c36 36 79 54 129 54s93 -18 129 -54s54 -79 54 -129z" />
    <glyph glyph-name="IJ" unicode="&#x132;" 
 />
    <glyph glyph-name="ij" unicode="&#x133;" 
 />
    <glyph glyph-name="Jcircumflex" unicode="&#x134;" 
 />
    <glyph glyph-name="jcircumflex" unicode="&#x135;" 
 />
    <glyph glyph-name="uni0136" unicode="&#x136;" 
 />
    <glyph glyph-name="uni0137" unicode="&#x137;" 
 />
    <glyph glyph-name="kgreenlandic" unicode="&#x138;" 
 />
    <glyph glyph-name="Lacute" unicode="&#x139;" 
 />
    <glyph glyph-name="lacute" unicode="&#x13a;" 
 />
    <glyph glyph-name="uni013B" unicode="&#x13b;" 
 />
    <glyph glyph-name="uni013C" unicode="&#x13c;" 
 />
    <glyph glyph-name="Lcaron" unicode="&#x13d;" 
 />
    <glyph glyph-name="lcaron" unicode="&#x13e;" 
 />
    <glyph glyph-name="Ldot" unicode="&#x13f;" 
 />
    <glyph glyph-name="ldot" unicode="&#x140;" 
 />
    <glyph glyph-name="Lslash" unicode="&#x141;" 
 />
    <glyph glyph-name="lslash" unicode="&#x142;" 
 />
    <glyph glyph-name="Nacute" unicode="&#x143;" 
 />
    <glyph glyph-name="nacute" unicode="&#x144;" 
 />
    <glyph glyph-name="uni0145" unicode="&#x145;" 
 />
    <glyph glyph-name="uni0146" unicode="&#x146;" 
 />
    <glyph glyph-name="Ncaron" unicode="&#x147;" 
 />
    <glyph glyph-name="ncaron" unicode="&#x148;" 
 />
    <glyph glyph-name="napostrophe" unicode="&#x149;" 
 />
    <glyph glyph-name="Eng" unicode="&#x14a;" 
 />
    <glyph glyph-name="eng" unicode="&#x14b;" 
 />
    <glyph glyph-name="Omacron" unicode="&#x14c;" 
 />
    <glyph glyph-name="omacron" unicode="&#x14d;" 
 />
    <glyph glyph-name="Obreve" unicode="&#x14e;" 
 />
    <glyph glyph-name="obreve" unicode="&#x14f;" 
 />
    <glyph glyph-name="uni0150" unicode="&#x150;" 
 />
    <glyph glyph-name="uni0151" unicode="&#x151;" 
 />
    <glyph glyph-name="OE" unicode="&#x152;" 
 />
    <glyph glyph-name="oe" unicode="&#x153;" 
 />
    <glyph glyph-name="Racute" unicode="&#x154;" 
 />
    <glyph glyph-name="racute" unicode="&#x155;" 
 />
    <glyph glyph-name="uni0156" unicode="&#x156;" 
 />
    <glyph glyph-name="uni0157" unicode="&#x157;" 
 />
    <glyph glyph-name="Rcaron" unicode="&#x158;" 
 />
    <glyph glyph-name="rcaron" unicode="&#x159;" 
 />
    <glyph glyph-name="Sacute" unicode="&#x15a;" 
 />
    <glyph glyph-name="sacute" unicode="&#x15b;" 
 />
    <glyph glyph-name="Scircumflex" unicode="&#x15c;" 
 />
    <glyph glyph-name="scircumflex" unicode="&#x15d;" 
 />
    <glyph glyph-name="Scedilla" unicode="&#x15e;" 
 />
    <glyph glyph-name="scedilla" unicode="&#x15f;" 
 />
    <glyph glyph-name="Scaron" unicode="&#x160;" 
 />
    <glyph glyph-name="scaron" unicode="&#x161;" 
 />
    <glyph glyph-name="uni0162" unicode="&#x162;" 
 />
    <glyph glyph-name="uni0163" unicode="&#x163;" 
 />
    <glyph glyph-name="Tcaron" unicode="&#x164;" 
 />
    <glyph glyph-name="tcaron" unicode="&#x165;" 
 />
    <glyph glyph-name="Tbar" unicode="&#x166;" 
 />
    <glyph glyph-name="tbar" unicode="&#x167;" 
 />
    <glyph glyph-name="Utilde" unicode="&#x168;" 
 />
    <glyph glyph-name="utilde" unicode="&#x169;" 
 />
    <glyph glyph-name="Umacron" unicode="&#x16a;" 
 />
    <glyph glyph-name="umacron" unicode="&#x16b;" 
 />
    <glyph glyph-name="Ubreve" unicode="&#x16c;" 
 />
    <glyph glyph-name="ubreve" unicode="&#x16d;" 
 />
    <glyph glyph-name="Uring" unicode="&#x16e;" 
 />
    <glyph glyph-name="uring" unicode="&#x16f;" 
 />
    <glyph glyph-name="uni0170" unicode="&#x170;" 
 />
    <glyph glyph-name="uni0171" unicode="&#x171;" 
 />
    <glyph glyph-name="Uogonek" unicode="&#x172;" 
 />
    <glyph glyph-name="uogonek" unicode="&#x173;" 
 />
    <glyph glyph-name="Wcircumflex" unicode="&#x174;" 
 />
    <glyph glyph-name="wcircumflex" unicode="&#x175;" 
 />
    <glyph glyph-name="Ycircumflex" unicode="&#x176;" 
 />
    <glyph glyph-name="ycircumflex" unicode="&#x177;" 
 />
    <glyph glyph-name="Ydieresis" unicode="&#x178;" 
 />
    <glyph glyph-name="Zacute" unicode="&#x179;" 
 />
    <glyph glyph-name="zacute" unicode="&#x17a;" 
 />
    <glyph glyph-name="uni017B" unicode="&#x17b;" 
 />
    <glyph glyph-name="uni017C" unicode="&#x17c;" 
 />
    <glyph glyph-name="Zcaron" unicode="&#x17d;" 
 />
    <glyph glyph-name="zcaron" unicode="&#x17e;" 
 />
    <glyph glyph-name="longs" unicode="&#x17f;" 
 />
    <glyph glyph-name="uni0180" unicode="&#x180;" 
 />
    <glyph glyph-name="uni0181" unicode="&#x181;" 
 />
    <glyph glyph-name="uni0182" unicode="&#x182;" 
 />
    <glyph glyph-name="uni0183" unicode="&#x183;" 
 />
    <glyph glyph-name="uni0184" unicode="&#x184;" 
 />
    <glyph glyph-name="uni0185" unicode="&#x185;" 
 />
    <glyph glyph-name="uni0186" unicode="&#x186;" 
 />
    <glyph glyph-name="uni0187" unicode="&#x187;" 
 />
    <glyph glyph-name="uni0188" unicode="&#x188;" 
 />
    <glyph glyph-name="uni0189" unicode="&#x189;" 
 />
    <glyph glyph-name="uni018A" unicode="&#x18a;" 
 />
    <glyph glyph-name="uni018B" unicode="&#x18b;" 
 />
    <glyph glyph-name="uni018C" unicode="&#x18c;" 
 />
    <glyph glyph-name="uni018D" unicode="&#x18d;" 
 />
    <glyph glyph-name="uni018E" unicode="&#x18e;" 
 />
    <glyph glyph-name="uni018F" unicode="&#x18f;" 
 />
    <glyph glyph-name="uni0190" unicode="&#x190;" 
 />
    <glyph glyph-name="uni0191" unicode="&#x191;" 
 />
    <glyph glyph-name="florin" unicode="&#x192;" horiz-adv-x="592" 
d="M662 1437c0 -35.333 -21.333 -52.9971 -64 -52.9971c-46.667 0 -93 23 -139 69c-10.667 6.66699 -19 10 -25 10c-26.667 0 -50.667 -12.667 -72 -38c-18 -20.667 -31.333 -47.5 -40 -80.5s-13 -71.833 -13 -116.5c0 3.33301 0 -2.83398 0 -18.501
s-0.333008 -40.834 -1 -75.501s-1 -68.834 -1 -102.501v-101.5c0 -14 4 -21 12 -21c7.33301 0 29 0.166992 65 0.5s87 0.833008 153 1.5c6.66699 0 10 -3.33301 10 -10v-45c0 -8 -3.33301 -12 -10 -12c-2.66699 0 -12.667 0.166992 -30 0.5l-77 1.5l-76.5 1.5
c-17 0.333008 -26.167 0.5 -27.5 0.5c-11.333 0 -17 -4.66699 -17 -14c0 -1.33301 1 -136.333 3 -405c2 -269.333 3 -426.333 3 -471c0 -99.333 -37.333 -180 -112 -242c-57.333 -47.333 -132.333 -71 -225 -71c-39.333 0 -74.666 10.667 -105.999 32
c-27.333 19.333 -41 37.333 -41 54c0 35.333 21.333 53 64 53c46 0 92 -23.333 138 -70c9.33301 -6.66699 17.333 -10 24 -10c26 0 50 13 72 39c35.333 41.333 53 107 53 197c0 38 -1 190.667 -3 458c-2 266.667 -3 408 -3 424s-4 24 -12 24
c-4 0 -12.833 -0.166992 -26.5 -0.5s-32.167 -0.833008 -55.5 -1.5c-4 0 -6.66699 0.666992 -8 2s-2 5.33301 -2 12v35c0 10.667 4 16 12 16h11c6 0 14.667 0.333008 26 1c22 0.666992 36.667 1 44 1s11 5 11 15v283c0 99.333 37.667 180 113 242
c56.667 48 131.667 72 225 72c39.333 0 74.666 -10.667 105.999 -32c28 -19.333 42 -37.333 42 -54z" />
    <glyph glyph-name="uni0193" unicode="&#x193;" 
 />
    <glyph glyph-name="uni0194" unicode="&#x194;" 
 />
    <glyph glyph-name="uni0195" unicode="&#x195;" 
 />
    <glyph glyph-name="uni0196" unicode="&#x196;" 
 />
    <glyph glyph-name="uni0197" unicode="&#x197;" 
 />
    <glyph glyph-name="uni0198" unicode="&#x198;" 
 />
    <glyph glyph-name="uni0199" unicode="&#x199;" 
 />
    <glyph glyph-name="uni019A" unicode="&#x19a;" 
 />
    <glyph glyph-name="uni019B" unicode="&#x19b;" 
 />
    <glyph glyph-name="uni019C" unicode="&#x19c;" 
 />
    <glyph glyph-name="uni019D" unicode="&#x19d;" 
 />
    <glyph glyph-name="uni019E" unicode="&#x19e;" 
 />
    <glyph glyph-name="uni019F" unicode="&#x19f;" 
 />
    <glyph glyph-name="Ohorn" unicode="&#x1a0;" 
 />
    <glyph glyph-name="ohorn" unicode="&#x1a1;" 
 />
    <glyph glyph-name="uni01A2" unicode="&#x1a2;" 
 />
    <glyph glyph-name="uni01A3" unicode="&#x1a3;" 
 />
    <glyph glyph-name="uni01A4" unicode="&#x1a4;" 
 />
    <glyph glyph-name="uni01A5" unicode="&#x1a5;" 
 />
    <glyph glyph-name="uni01A6" unicode="&#x1a6;" 
 />
    <glyph glyph-name="uni01A7" unicode="&#x1a7;" 
 />
    <glyph glyph-name="uni01A8" unicode="&#x1a8;" 
 />
    <glyph glyph-name="uni01A9" unicode="&#x1a9;" 
 />
    <glyph glyph-name="uni01AA" unicode="&#x1aa;" 
 />
    <glyph glyph-name="uni01AB" unicode="&#x1ab;" 
 />
    <glyph glyph-name="uni01AC" unicode="&#x1ac;" 
 />
    <glyph glyph-name="uni01AD" unicode="&#x1ad;" 
 />
    <glyph glyph-name="uni01AE" unicode="&#x1ae;" 
 />
    <glyph glyph-name="Uhorn" unicode="&#x1af;" 
 />
    <glyph glyph-name="uhorn" unicode="&#x1b0;" 
 />
    <glyph glyph-name="uni01B1" unicode="&#x1b1;" 
 />
    <glyph glyph-name="uni01B2" unicode="&#x1b2;" 
 />
    <glyph glyph-name="uni01B3" unicode="&#x1b3;" 
 />
    <glyph glyph-name="uni01B4" unicode="&#x1b4;" 
 />
    <glyph glyph-name="uni01B5" unicode="&#x1b5;" 
 />
    <glyph glyph-name="uni01B6" unicode="&#x1b6;" 
 />
    <glyph glyph-name="uni01B7" unicode="&#x1b7;" 
 />
    <glyph glyph-name="uni01B8" unicode="&#x1b8;" 
 />
    <glyph glyph-name="uni01B9" unicode="&#x1b9;" 
 />
    <glyph glyph-name="uni01BA" unicode="&#x1ba;" 
 />
    <glyph glyph-name="uni01BB" unicode="&#x1bb;" 
 />
    <glyph glyph-name="uni01BC" unicode="&#x1bc;" 
 />
    <glyph glyph-name="uni01BD" unicode="&#x1bd;" 
 />
    <glyph glyph-name="uni01BE" unicode="&#x1be;" 
 />
    <glyph glyph-name="uni01BF" unicode="&#x1bf;" 
 />
    <glyph glyph-name="uni01C0" unicode="&#x1c0;" 
 />
    <glyph glyph-name="uni01C1" unicode="&#x1c1;" 
 />
    <glyph glyph-name="uni01C2" unicode="&#x1c2;" 
 />
    <glyph glyph-name="uni01C3" unicode="&#x1c3;" 
 />
    <glyph glyph-name="uni01C4" unicode="&#x1c4;" 
 />
    <glyph glyph-name="uni01C5" unicode="&#x1c5;" 
 />
    <glyph glyph-name="uni01C6" unicode="&#x1c6;" 
 />
    <glyph glyph-name="uni01C7" unicode="&#x1c7;" 
 />
    <glyph glyph-name="uni01C8" unicode="&#x1c8;" 
 />
    <glyph glyph-name="uni01C9" unicode="&#x1c9;" 
 />
    <glyph glyph-name="uni01CA" unicode="&#x1ca;" 
 />
    <glyph glyph-name="uni01CB" unicode="&#x1cb;" 
 />
    <glyph glyph-name="uni01CC" unicode="&#x1cc;" 
 />
    <glyph glyph-name="uni01CD" unicode="&#x1cd;" 
 />
    <glyph glyph-name="uni01CE" unicode="&#x1ce;" 
 />
    <glyph glyph-name="uni01CF" unicode="&#x1cf;" 
 />
    <glyph glyph-name="uni01D0" unicode="&#x1d0;" 
 />
    <glyph glyph-name="uni01D1" unicode="&#x1d1;" 
 />
    <glyph glyph-name="uni01D2" unicode="&#x1d2;" 
 />
    <glyph glyph-name="uni01D3" unicode="&#x1d3;" 
 />
    <glyph glyph-name="uni01D4" unicode="&#x1d4;" 
 />
    <glyph glyph-name="uni01D5" unicode="&#x1d5;" 
 />
    <glyph glyph-name="uni01D6" unicode="&#x1d6;" 
 />
    <glyph glyph-name="uni01D7" unicode="&#x1d7;" 
 />
    <glyph glyph-name="uni01D8" unicode="&#x1d8;" 
 />
    <glyph glyph-name="uni01D9" unicode="&#x1d9;" 
 />
    <glyph glyph-name="uni01DA" unicode="&#x1da;" 
 />
    <glyph glyph-name="uni01DB" unicode="&#x1db;" 
 />
    <glyph glyph-name="uni01DC" unicode="&#x1dc;" 
 />
    <glyph glyph-name="uni01DD" unicode="&#x1dd;" 
 />
    <glyph glyph-name="uni01DE" unicode="&#x1de;" 
 />
    <glyph glyph-name="uni01DF" unicode="&#x1df;" 
 />
    <glyph glyph-name="uni01E0" unicode="&#x1e0;" 
 />
    <glyph glyph-name="uni01E1" unicode="&#x1e1;" 
 />
    <glyph glyph-name="uni01E2" unicode="&#x1e2;" 
 />
    <glyph glyph-name="uni01E3" unicode="&#x1e3;" 
 />
    <glyph glyph-name="uni01E4" unicode="&#x1e4;" 
 />
    <glyph glyph-name="uni01E5" unicode="&#x1e5;" 
 />
    <glyph glyph-name="uni01E6" unicode="&#x1e6;" 
 />
    <glyph glyph-name="uni01E7" unicode="&#x1e7;" 
 />
    <glyph glyph-name="uni01E8" unicode="&#x1e8;" 
 />
    <glyph glyph-name="uni01E9" unicode="&#x1e9;" 
 />
    <glyph glyph-name="uni01EA" unicode="&#x1ea;" 
 />
    <glyph glyph-name="uni01EB" unicode="&#x1eb;" 
 />
    <glyph glyph-name="uni01EC" unicode="&#x1ec;" 
 />
    <glyph glyph-name="uni01ED" unicode="&#x1ed;" 
 />
    <glyph glyph-name="uni01EE" unicode="&#x1ee;" 
 />
    <glyph glyph-name="uni01EF" unicode="&#x1ef;" 
 />
    <glyph glyph-name="uni01F0" unicode="&#x1f0;" 
 />
    <glyph glyph-name="uni01F1" unicode="&#x1f1;" 
 />
    <glyph glyph-name="uni01F2" unicode="&#x1f2;" 
 />
    <glyph glyph-name="uni01F3" unicode="&#x1f3;" 
 />
    <glyph glyph-name="uni01F4" unicode="&#x1f4;" 
 />
    <glyph glyph-name="uni01F5" unicode="&#x1f5;" 
 />
    <glyph glyph-name="uni01F6" unicode="&#x1f6;" 
 />
    <glyph glyph-name="uni01F7" unicode="&#x1f7;" 
 />
    <glyph glyph-name="uni01F8" unicode="&#x1f8;" 
 />
    <glyph glyph-name="uni01F9" unicode="&#x1f9;" 
 />
    <glyph glyph-name="Aringacute" unicode="&#x1fa;" 
 />
    <glyph glyph-name="aringacute" unicode="&#x1fb;" 
 />
    <glyph glyph-name="AEacute" unicode="&#x1fc;" 
 />
    <glyph glyph-name="aeacute" unicode="&#x1fd;" 
 />
    <glyph glyph-name="Oslashacute" unicode="&#x1fe;" 
 />
    <glyph glyph-name="oslashacute" unicode="&#x1ff;" 
 />
    <glyph glyph-name="uni0200" unicode="&#x200;" 
 />
    <glyph glyph-name="uni0201" unicode="&#x201;" 
 />
    <glyph glyph-name="uni0202" unicode="&#x202;" 
 />
    <glyph glyph-name="uni0203" unicode="&#x203;" 
 />
    <glyph glyph-name="uni0204" unicode="&#x204;" 
 />
    <glyph glyph-name="uni0205" unicode="&#x205;" 
 />
    <glyph glyph-name="uni0206" unicode="&#x206;" 
 />
    <glyph glyph-name="uni0207" unicode="&#x207;" 
 />
    <glyph glyph-name="uni0208" unicode="&#x208;" 
 />
    <glyph glyph-name="uni0209" unicode="&#x209;" 
 />
    <glyph glyph-name="uni020A" unicode="&#x20a;" 
 />
    <glyph glyph-name="uni020B" unicode="&#x20b;" 
 />
    <glyph glyph-name="uni020C" unicode="&#x20c;" 
 />
    <glyph glyph-name="uni020D" unicode="&#x20d;" 
 />
    <glyph glyph-name="uni020E" unicode="&#x20e;" 
 />
    <glyph glyph-name="uni020F" unicode="&#x20f;" 
 />
    <glyph glyph-name="uni0210" unicode="&#x210;" 
 />
    <glyph glyph-name="uni0211" unicode="&#x211;" 
 />
    <glyph glyph-name="uni0212" unicode="&#x212;" 
 />
    <glyph glyph-name="uni0213" unicode="&#x213;" 
 />
    <glyph glyph-name="uni0214" unicode="&#x214;" 
 />
    <glyph glyph-name="uni0215" unicode="&#x215;" 
 />
    <glyph glyph-name="uni0216" unicode="&#x216;" 
 />
    <glyph glyph-name="uni0217" unicode="&#x217;" 
 />
    <glyph glyph-name="Scommaaccent" unicode="&#x218;" 
 />
    <glyph glyph-name="scommaaccent" unicode="&#x219;" 
 />
    <glyph glyph-name="uni021A" unicode="&#x21a;" 
 />
    <glyph glyph-name="uni021B" unicode="&#x21b;" 
 />
    <glyph glyph-name="uni021C" unicode="&#x21c;" 
 />
    <glyph glyph-name="uni021D" unicode="&#x21d;" 
 />
    <glyph glyph-name="uni021E" unicode="&#x21e;" 
 />
    <glyph glyph-name="uni021F" unicode="&#x21f;" 
 />
    <glyph glyph-name="uni0220" unicode="&#x220;" 
 />
    <glyph glyph-name="uni0221" unicode="&#x221;" 
 />
    <glyph glyph-name="uni0222" unicode="&#x222;" 
 />
    <glyph glyph-name="uni0223" unicode="&#x223;" 
 />
    <glyph glyph-name="uni0224" unicode="&#x224;" 
 />
    <glyph glyph-name="uni0225" unicode="&#x225;" 
 />
    <glyph glyph-name="uni0226" unicode="&#x226;" 
 />
    <glyph glyph-name="uni0227" unicode="&#x227;" 
 />
    <glyph glyph-name="uni0228" unicode="&#x228;" 
 />
    <glyph glyph-name="uni0229" unicode="&#x229;" 
 />
    <glyph glyph-name="uni022A" unicode="&#x22a;" 
 />
    <glyph glyph-name="uni022B" unicode="&#x22b;" 
 />
    <glyph glyph-name="uni022C" unicode="&#x22c;" 
 />
    <glyph glyph-name="uni022D" unicode="&#x22d;" 
 />
    <glyph glyph-name="uni022E" unicode="&#x22e;" 
 />
    <glyph glyph-name="uni022F" unicode="&#x22f;" 
 />
    <glyph glyph-name="uni0230" unicode="&#x230;" 
 />
    <glyph glyph-name="uni0231" unicode="&#x231;" 
 />
    <glyph glyph-name="uni0232" unicode="&#x232;" 
 />
    <glyph glyph-name="uni0233" unicode="&#x233;" 
 />
    <glyph glyph-name="uni0234" unicode="&#x234;" 
 />
    <glyph glyph-name="uni0235" unicode="&#x235;" 
 />
    <glyph glyph-name="uni0236" unicode="&#x236;" 
 />
    <glyph glyph-name="uni0237" unicode="&#x237;" 
 />
    <glyph glyph-name="uni0238" unicode="&#x238;" 
 />
    <glyph glyph-name="uni0239" unicode="&#x239;" 
 />
    <glyph glyph-name="uni023A" unicode="&#x23a;" 
 />
    <glyph glyph-name="uni023B" unicode="&#x23b;" 
 />
    <glyph glyph-name="uni023C" unicode="&#x23c;" 
 />
    <glyph glyph-name="uni023D" unicode="&#x23d;" 
 />
    <glyph glyph-name="uni023E" unicode="&#x23e;" 
 />
    <glyph glyph-name="uni023F" unicode="&#x23f;" 
 />
    <glyph glyph-name="uni0240" unicode="&#x240;" 
 />
    <glyph glyph-name="uni0241" unicode="&#x241;" 
 />
    <glyph glyph-name="uni0242" unicode="&#x242;" 
 />
    <glyph glyph-name="uni0243" unicode="&#x243;" 
 />
    <glyph glyph-name="uni0244" unicode="&#x244;" 
 />
    <glyph glyph-name="uni0245" unicode="&#x245;" 
 />
    <glyph glyph-name="uni0246" unicode="&#x246;" 
 />
    <glyph glyph-name="uni0247" unicode="&#x247;" 
 />
    <glyph glyph-name="uni0248" unicode="&#x248;" 
 />
    <glyph glyph-name="uni0249" unicode="&#x249;" 
 />
    <glyph glyph-name="uni024A" unicode="&#x24a;" 
 />
    <glyph glyph-name="uni024B" unicode="&#x24b;" 
 />
    <glyph glyph-name="uni024C" unicode="&#x24c;" 
 />
    <glyph glyph-name="uni024D" unicode="&#x24d;" 
 />
    <glyph glyph-name="uni024E" unicode="&#x24e;" 
 />
    <glyph glyph-name="uni024F" unicode="&#x24f;" 
 />
    <glyph glyph-name="uni0250" unicode="&#x250;" 
 />
    <glyph glyph-name="uni0251" unicode="&#x251;" 
 />
    <glyph glyph-name="uni0252" unicode="&#x252;" 
 />
    <glyph glyph-name="uni0253" unicode="&#x253;" 
 />
    <glyph glyph-name="uni0254" unicode="&#x254;" 
 />
    <glyph glyph-name="uni0255" unicode="&#x255;" 
 />
    <glyph glyph-name="uni0256" unicode="&#x256;" 
 />
    <glyph glyph-name="uni0257" unicode="&#x257;" 
 />
    <glyph glyph-name="uni0258" unicode="&#x258;" 
 />
    <glyph glyph-name="uni0259" unicode="&#x259;" 
 />
    <glyph glyph-name="uni025A" unicode="&#x25a;" 
 />
    <glyph glyph-name="uni025B" unicode="&#x25b;" 
 />
    <glyph glyph-name="uni025C" unicode="&#x25c;" 
 />
    <glyph glyph-name="uni025D" unicode="&#x25d;" 
 />
    <glyph glyph-name="uni025E" unicode="&#x25e;" 
 />
    <glyph glyph-name="uni025F" unicode="&#x25f;" 
 />
    <glyph glyph-name="uni0260" unicode="&#x260;" 
 />
    <glyph glyph-name="uni0261" unicode="&#x261;" 
 />
    <glyph glyph-name="uni0262" unicode="&#x262;" 
 />
    <glyph glyph-name="uni0263" unicode="&#x263;" 
 />
    <glyph glyph-name="uni0264" unicode="&#x264;" 
 />
    <glyph glyph-name="uni0265" unicode="&#x265;" 
 />
    <glyph glyph-name="uni0266" unicode="&#x266;" 
 />
    <glyph glyph-name="uni0267" unicode="&#x267;" 
 />
    <glyph glyph-name="uni0268" unicode="&#x268;" 
 />
    <glyph glyph-name="uni0269" unicode="&#x269;" 
 />
    <glyph glyph-name="uni026A" unicode="&#x26a;" 
 />
    <glyph glyph-name="uni026B" unicode="&#x26b;" 
 />
    <glyph glyph-name="uni026C" unicode="&#x26c;" 
 />
    <glyph glyph-name="uni026D" unicode="&#x26d;" 
 />
    <glyph glyph-name="uni026E" unicode="&#x26e;" 
 />
    <glyph glyph-name="uni026F" unicode="&#x26f;" 
 />
    <glyph glyph-name="uni0270" unicode="&#x270;" 
 />
    <glyph glyph-name="uni0271" unicode="&#x271;" 
 />
    <glyph glyph-name="uni0272" unicode="&#x272;" 
 />
    <glyph glyph-name="uni0273" unicode="&#x273;" 
 />
    <glyph glyph-name="uni0274" unicode="&#x274;" 
 />
    <glyph glyph-name="uni0275" unicode="&#x275;" 
 />
    <glyph glyph-name="uni0276" unicode="&#x276;" 
 />
    <glyph glyph-name="uni0277" unicode="&#x277;" 
 />
    <glyph glyph-name="uni0278" unicode="&#x278;" 
 />
    <glyph glyph-name="uni0279" unicode="&#x279;" 
 />
    <glyph glyph-name="uni027A" unicode="&#x27a;" 
 />
    <glyph glyph-name="uni027B" unicode="&#x27b;" 
 />
    <glyph glyph-name="uni027C" unicode="&#x27c;" 
 />
    <glyph glyph-name="uni027D" unicode="&#x27d;" 
 />
    <glyph glyph-name="uni027E" unicode="&#x27e;" 
 />
    <glyph glyph-name="uni027F" unicode="&#x27f;" 
 />
    <glyph glyph-name="uni0280" unicode="&#x280;" 
 />
    <glyph glyph-name="uni0281" unicode="&#x281;" 
 />
    <glyph glyph-name="uni0282" unicode="&#x282;" 
 />
    <glyph glyph-name="uni0283" unicode="&#x283;" 
 />
    <glyph glyph-name="uni0284" unicode="&#x284;" 
 />
    <glyph glyph-name="uni0285" unicode="&#x285;" 
 />
    <glyph glyph-name="uni0286" unicode="&#x286;" 
 />
    <glyph glyph-name="uni0287" unicode="&#x287;" 
 />
    <glyph glyph-name="uni0288" unicode="&#x288;" 
 />
    <glyph glyph-name="uni0289" unicode="&#x289;" 
 />
    <glyph glyph-name="uni028A" unicode="&#x28a;" 
 />
    <glyph glyph-name="uni028B" unicode="&#x28b;" 
 />
    <glyph glyph-name="uni028C" unicode="&#x28c;" 
 />
    <glyph glyph-name="uni028D" unicode="&#x28d;" 
 />
    <glyph glyph-name="uni028E" unicode="&#x28e;" 
 />
    <glyph glyph-name="uni028F" unicode="&#x28f;" 
 />
    <glyph glyph-name="uni0290" unicode="&#x290;" 
 />
    <glyph glyph-name="uni0291" unicode="&#x291;" 
 />
    <glyph glyph-name="uni0292" unicode="&#x292;" 
 />
    <glyph glyph-name="uni0293" unicode="&#x293;" 
 />
    <glyph glyph-name="uni0294" unicode="&#x294;" 
 />
    <glyph glyph-name="uni0295" unicode="&#x295;" 
 />
    <glyph glyph-name="uni0296" unicode="&#x296;" 
 />
    <glyph glyph-name="uni0297" unicode="&#x297;" 
 />
    <glyph glyph-name="uni0298" unicode="&#x298;" 
 />
    <glyph glyph-name="uni0299" unicode="&#x299;" 
 />
    <glyph glyph-name="uni029A" unicode="&#x29a;" 
 />
    <glyph glyph-name="uni029B" unicode="&#x29b;" 
 />
    <glyph glyph-name="uni029C" unicode="&#x29c;" 
 />
    <glyph glyph-name="uni029D" unicode="&#x29d;" 
 />
    <glyph glyph-name="uni029E" unicode="&#x29e;" 
 />
    <glyph glyph-name="uni029F" unicode="&#x29f;" 
 />
    <glyph glyph-name="uni02A0" unicode="&#x2a0;" 
 />
    <glyph glyph-name="uni02A1" unicode="&#x2a1;" 
 />
    <glyph glyph-name="uni02A2" unicode="&#x2a2;" 
 />
    <glyph glyph-name="uni02A3" unicode="&#x2a3;" 
 />
    <glyph glyph-name="uni02A4" unicode="&#x2a4;" 
 />
    <glyph glyph-name="uni02A5" unicode="&#x2a5;" 
 />
    <glyph glyph-name="uni02A6" unicode="&#x2a6;" 
 />
    <glyph glyph-name="uni02A7" unicode="&#x2a7;" 
 />
    <glyph glyph-name="uni02A8" unicode="&#x2a8;" 
 />
    <glyph glyph-name="uni02A9" unicode="&#x2a9;" 
 />
    <glyph glyph-name="uni02AA" unicode="&#x2aa;" 
 />
    <glyph glyph-name="uni02AB" unicode="&#x2ab;" 
 />
    <glyph glyph-name="uni02AC" unicode="&#x2ac;" 
 />
    <glyph glyph-name="uni02AD" unicode="&#x2ad;" 
 />
    <glyph glyph-name="uni02AE" unicode="&#x2ae;" 
 />
    <glyph glyph-name="uni02AF" unicode="&#x2af;" 
 />
    <glyph glyph-name="uni02B0" unicode="&#x2b0;" 
 />
    <glyph glyph-name="uni02B1" unicode="&#x2b1;" 
 />
    <glyph glyph-name="uni02B2" unicode="&#x2b2;" 
 />
    <glyph glyph-name="uni02B3" unicode="&#x2b3;" 
 />
    <glyph glyph-name="uni02B4" unicode="&#x2b4;" 
 />
    <glyph glyph-name="uni02B5" unicode="&#x2b5;" 
 />
    <glyph glyph-name="uni02B6" unicode="&#x2b6;" 
 />
    <glyph glyph-name="uni02B7" unicode="&#x2b7;" 
 />
    <glyph glyph-name="uni02B8" unicode="&#x2b8;" 
 />
    <glyph glyph-name="uni02B9" unicode="&#x2b9;" 
 />
    <glyph glyph-name="uni02BA" unicode="&#x2ba;" 
 />
    <glyph glyph-name="uni02BB" unicode="&#x2bb;" 
 />
    <glyph glyph-name="uni02BC" unicode="&#x2bc;" 
 />
    <glyph glyph-name="uni02BD" unicode="&#x2bd;" 
 />
    <glyph glyph-name="uni02BE" unicode="&#x2be;" 
 />
    <glyph glyph-name="uni02BF" unicode="&#x2bf;" 
 />
    <glyph glyph-name="uni02C0" unicode="&#x2c0;" 
 />
    <glyph glyph-name="uni02C1" unicode="&#x2c1;" 
 />
    <glyph glyph-name="uni02C2" unicode="&#x2c2;" 
 />
    <glyph glyph-name="uni02C3" unicode="&#x2c3;" 
 />
    <glyph glyph-name="uni02C4" unicode="&#x2c4;" 
 />
    <glyph glyph-name="uni02C5" unicode="&#x2c5;" 
 />
    <glyph glyph-name="circumflex" unicode="&#x2c6;" horiz-adv-x="545" 
d="M520 1044c-12.667 -6.66699 -28.334 -4.33398 -47.001 6.99902l-201 132l-84 -59.5c-32 -22.333 -68.667 -46.5 -110 -72.5c-17.333 -11.333 -33.333 -13.666 -48 -6.99902c-4 4 1.66699 15 17 33l63 79.5l76 94.5c6.66699 8.66699 12.334 13 17.001 13
c6.66699 0.666992 15.167 1.16699 25.5 1.5s22.166 0.5 35.499 0.5c20.667 0 36.834 -0.166992 48.501 -0.5s19.167 -0.833008 22.5 -1.5c7.33301 -1.33301 14 -4.33301 20 -9c22 -22 45.333 -47.667 70 -77s51 -63 79 -101c14 -18.667 19.333 -29.667 16 -33z" />
    <glyph glyph-name="caron" unicode="&#x2c7;" horiz-adv-x="389" 
d="M283 834c0 -12 -2.5 -23.167 -7.5 -33.5s-11.833 -19.5 -20.5 -27.5s-18.667 -14.167 -30 -18.5s-23 -6.5 -35 -6.5c-61.333 0 -92 28.667 -92 86c0 64 37 96 111 96c49.333 0 74 -32 74 -96z" />
    <glyph glyph-name="uni02C8" unicode="&#x2c8;" 
 />
    <glyph glyph-name="uni02C9" unicode="&#x2c9;" horiz-adv-x="545" 
d="M293 1198c-6 -8 -15.002 -17.001 -27.002 -27.001c-21.333 -18.667 -49.666 -42.167 -84.999 -70.5l-128 -101.5c-14 -11.333 -25.667 -13.333 -35 -6c-8 6.66699 -4.33301 19.667 11 39l61.5 73.5l83.5 100.5c6.66699 8.66699 14.334 12.334 23.001 11.001
c16.667 -3.33301 46.667 -5 90 -5c2.66699 0 5 -1.66699 7 -5c1.33301 -4 1 -7 -1 -9zM511.998 1202c-7.33301 -8 -16.335 -16.668 -27.002 -26.001l-85 -71l-128 -101c-13.333 -10.667 -24.666 -13 -33.999 -7c-9.33301 6.66699 -6 19.667 10 39l61.5 73.5l83.5 100.5
c6.66699 8.66699 14.334 12.334 23.001 11.001c13.333 -2.66699 43.333 -4 90 -4c2.66699 0 5 -2 7 -6c1.33301 -4 1 -7 -1 -9z" />
    <glyph glyph-name="uni02CA" unicode="&#x2ca;" 
 />
    <glyph glyph-name="uni02CB" unicode="&#x2cb;" 
 />
    <glyph glyph-name="uni02CC" unicode="&#x2cc;" 
 />
    <glyph glyph-name="uni02CD" unicode="&#x2cd;" 
 />
    <glyph glyph-name="uni02CE" unicode="&#x2ce;" 
 />
    <glyph glyph-name="uni02CF" unicode="&#x2cf;" 
 />
    <glyph glyph-name="uni02D0" unicode="&#x2d0;" 
 />
    <glyph glyph-name="uni02D1" unicode="&#x2d1;" 
 />
    <glyph glyph-name="uni02D2" unicode="&#x2d2;" 
 />
    <glyph glyph-name="uni02D3" unicode="&#x2d3;" 
 />
    <glyph glyph-name="uni02D4" unicode="&#x2d4;" 
 />
    <glyph glyph-name="uni02D5" unicode="&#x2d5;" 
 />
    <glyph glyph-name="uni02D6" unicode="&#x2d6;" 
 />
    <glyph glyph-name="uni02D7" unicode="&#x2d7;" 
 />
    <glyph glyph-name="breve" unicode="&#x2d8;" horiz-adv-x="545" 
d="M428 -175c10.667 -10.667 9.33398 -21.668 -3.99902 -33.001c-49.333 -40.667 -106 -61 -170 -61c-46.667 0 -83 15.333 -109 46c-21.333 26.667 -32 57.667 -32 93c0 34.667 12.667 65.334 38 92.001c21.333 21.333 44 34 68 38h45c-31.333 -20 -47 -60 -47 -120
c0 -19.333 7 -37 21 -53c14.667 -18 33.667 -27 57 -27c45.333 0 80.666 9 105.999 27c10 6.66699 19 6 27 -2z" />
    <glyph glyph-name="dotaccent" unicode="&#x2d9;" horiz-adv-x="545" 
d="M513 1211c4 -2.66699 -1.66797 -13.334 -17.001 -32.001l-63 -79.5l-76 -94.5c-6 -8.66699 -11.667 -13 -17 -13c-6.66699 -0.666992 -15.167 -1.16699 -25.5 -1.5s-22.166 -0.5 -35.499 -0.5c-20.667 0 -37 0.166992 -49 0.5s-19.667 0.833008 -23 1.5
c-7.33301 0.666992 -13.333 3.66699 -18 9c-44.667 44.667 -94.667 104 -150 178c-13.333 18.667 -18.666 29.334 -15.999 32.001c13.333 8 29 6 47 -6l201 -132l84.5 59.5c32.333 22.333 69.166 46.5 110.499 72.5c18 11.333 33.667 13.333 47 6z" />
    <glyph glyph-name="ring" unicode="&#x2da;" 
 />
    <glyph glyph-name="ogonek" unicode="&#x2db;" horiz-adv-x="322" 
d="M582 801c2.66699 -8 -1.66895 -20.332 -13.002 -36.999c-38 -56 -96 -84 -174 -84c-39.333 0 -80.333 11.667 -123 35c-71.333 39.333 -121.666 59 -150.999 59c-19.333 0 -37.666 -8.66699 -54.999 -26c-3.33301 -4.66699 -7.33301 -9.5 -12 -14.5l-15 -16.5
c-8.66699 -2.66699 -17 7.66602 -25 30.999c-4 7.33301 -0.333008 19.666 11 36.999c36 56 94 84 174 84c32 0 72 -11.667 120 -35c80.667 -40 132 -60 154 -60c20.667 0 39 9 55 27c3.33301 4 7.33301 8.5 12 13.5l17 17.5c4.66699 2.66699 13 -7.66602 25 -30.999z
M581.997 529.001c2.66699 -8 -1.66895 -20.332 -13.002 -36.999c-38 -56 -96 -84 -174 -84c-39.333 0 -80.333 11.667 -123 35c-71.333 39.333 -121.666 59 -150.999 59c-19.333 0 -37.666 -8.66699 -54.999 -26c-3.33301 -4.66699 -7.33301 -9.5 -12 -14.5l-15 -16.5
c-8.66699 -2.66699 -17 7.66602 -25 30.999c-4 7.33301 -0.333008 19.666 11 36.999c36 56 94 84 174 84c32 0 72 -11.667 120 -35c80.667 -40 132 -60 154 -60c20.667 0 39 9 55 27c3.33301 4 7.33301 8.5 12 13.5l17 17.5c4.66699 2.66699 13 -7.66602 25 -30.999z" />
    <glyph glyph-name="tilde" unicode="&#x2dc;" horiz-adv-x="545" 
d="M528 1161c6.66699 -15.333 4.66699 -30.332 -6 -44.999c-33.333 -46 -85.666 -69 -156.999 -69c-38.667 0 -76.334 9.33301 -113.001 28c-63.333 32.667 -109 49 -137 49c-22.667 0 -44 -10.667 -64 -32c-13.333 -15.333 -25 -10 -35 16
c-3.33301 10 0.333984 22.333 11.001 37c32.667 46 85 69 157 69c32.667 0 69.667 -9.33301 111 -28c71.333 -32.667 117.666 -49 138.999 -49c20 0 40.667 10.667 62 32c13.333 13.333 24 10.666 32 -8.00098z" />
    <glyph glyph-name="hungarumlaut" unicode="&#x2dd;" horiz-adv-x="438" 
d="M299 451c0 -57.333 -31 -86 -93 -86c-52.667 0 -79 25.333 -79 76c0 62.667 34 94 102 94c46.667 0 70 -28 70 -84zM327 -418c0 -91.333 -45.001 -170.334 -135.001 -237.001c-19.333 -14 -31.666 -21 -36.999 -21c-8 0 -12 6 -12 18c0 9.33301 7.66699 21.666 23 36.999
c47.333 48.667 71 102.667 71 162c0 26 -6 48.667 -18 68c-8 10.667 -21 16 -39 16c-28 0 -52.333 7.66699 -73 23c-22.667 16.667 -34 38.334 -34 65.001c0 41.333 30 62 90 62c46 0 85 -19 117 -57c31.333 -37.333 47 -82.666 47 -135.999z" />
    <glyph glyph-name="uni02DE" unicode="&#x2de;" 
 />
    <glyph glyph-name="uni02DF" unicode="&#x2df;" 
 />
    <glyph glyph-name="uni02E0" unicode="&#x2e0;" 
 />
    <glyph glyph-name="uni02E1" unicode="&#x2e1;" 
 />
    <glyph glyph-name="uni02E2" unicode="&#x2e2;" 
 />
    <glyph glyph-name="uni02E3" unicode="&#x2e3;" 
 />
    <glyph glyph-name="uni02E4" unicode="&#x2e4;" 
 />
    <glyph glyph-name="uni02E5" unicode="&#x2e5;" 
 />
    <glyph glyph-name="uni02E6" unicode="&#x2e6;" 
 />
    <glyph glyph-name="uni02E7" unicode="&#x2e7;" 
 />
    <glyph glyph-name="uni02E8" unicode="&#x2e8;" 
 />
    <glyph glyph-name="uni02E9" unicode="&#x2e9;" 
 />
    <glyph glyph-name="uni02EA" unicode="&#x2ea;" 
 />
    <glyph glyph-name="uni02EB" unicode="&#x2eb;" 
 />
    <glyph glyph-name="uni02EC" unicode="&#x2ec;" 
 />
    <glyph glyph-name="uni02ED" unicode="&#x2ed;" 
 />
    <glyph glyph-name="uni02EE" unicode="&#x2ee;" 
 />
    <glyph glyph-name="uni02EF" unicode="&#x2ef;" 
 />
    <glyph glyph-name="uni02F0" unicode="&#x2f0;" 
 />
    <glyph glyph-name="uni02F1" unicode="&#x2f1;" 
 />
    <glyph glyph-name="uni02F2" unicode="&#x2f2;" 
 />
    <glyph glyph-name="uni02F3" unicode="&#x2f3;" 
 />
    <glyph glyph-name="uni02F4" unicode="&#x2f4;" 
 />
    <glyph glyph-name="uni02F5" unicode="&#x2f5;" 
 />
    <glyph glyph-name="uni02F6" unicode="&#x2f6;" 
 />
    <glyph glyph-name="uni02F7" unicode="&#x2f7;" 
 />
    <glyph glyph-name="uni02F8" unicode="&#x2f8;" 
 />
    <glyph glyph-name="uni02F9" unicode="&#x2f9;" 
 />
    <glyph glyph-name="uni02FA" unicode="&#x2fa;" 
 />
    <glyph glyph-name="uni02FB" unicode="&#x2fb;" 
 />
    <glyph glyph-name="uni02FC" unicode="&#x2fc;" 
 />
    <glyph glyph-name="uni02FD" unicode="&#x2fd;" 
 />
    <glyph glyph-name="uni02FE" unicode="&#x2fe;" 
 />
    <glyph glyph-name="uni02FF" unicode="&#x2ff;" 
 />
    <glyph glyph-name="gravecomb" unicode="&#x300;" 
 />
    <glyph glyph-name="acutecomb" unicode="&#x301;" 
 />
    <glyph glyph-name="uni0302" unicode="&#x302;" 
 />
    <glyph glyph-name="tildecomb" unicode="&#x303;" 
 />
    <glyph glyph-name="uni0304" unicode="&#x304;" 
 />
    <glyph glyph-name="uni0305" unicode="&#x305;" 
 />
    <glyph glyph-name="uni0306" unicode="&#x306;" 
 />
    <glyph glyph-name="uni0307" unicode="&#x307;" 
 />
    <glyph glyph-name="uni0308" unicode="&#x308;" 
 />
    <glyph glyph-name="hookabovecomb" unicode="&#x309;" 
 />
    <glyph glyph-name="uni030A" unicode="&#x30a;" 
 />
    <glyph glyph-name="uni030B" unicode="&#x30b;" 
 />
    <glyph glyph-name="uni030C" unicode="&#x30c;" 
 />
    <glyph glyph-name="uni030D" unicode="&#x30d;" 
 />
    <glyph glyph-name="uni030E" unicode="&#x30e;" 
 />
    <glyph glyph-name="uni030F" unicode="&#x30f;" 
 />
    <glyph glyph-name="uni0310" unicode="&#x310;" 
 />
    <glyph glyph-name="uni0311" unicode="&#x311;" 
 />
    <glyph glyph-name="uni0312" unicode="&#x312;" 
 />
    <glyph glyph-name="uni0313" unicode="&#x313;" 
 />
    <glyph glyph-name="uni0314" unicode="&#x314;" 
 />
    <glyph glyph-name="uni0315" unicode="&#x315;" 
 />
    <glyph glyph-name="uni0316" unicode="&#x316;" 
 />
    <glyph glyph-name="uni0317" unicode="&#x317;" 
 />
    <glyph glyph-name="uni0318" unicode="&#x318;" 
 />
    <glyph glyph-name="uni0319" unicode="&#x319;" 
 />
    <glyph glyph-name="uni031A" unicode="&#x31a;" 
 />
    <glyph glyph-name="uni031B" unicode="&#x31b;" 
 />
    <glyph glyph-name="uni031C" unicode="&#x31c;" 
 />
    <glyph glyph-name="uni031D" unicode="&#x31d;" 
 />
    <glyph glyph-name="uni031E" unicode="&#x31e;" 
 />
    <glyph glyph-name="uni031F" unicode="&#x31f;" 
 />
    <glyph glyph-name="uni0320" unicode="&#x320;" 
 />
    <glyph glyph-name="uni0321" unicode="&#x321;" 
 />
    <glyph glyph-name="uni0322" unicode="&#x322;" 
 />
    <glyph glyph-name="dotbelowcomb" unicode="&#x323;" 
 />
    <glyph glyph-name="uni0324" unicode="&#x324;" 
 />
    <glyph glyph-name="uni0325" unicode="&#x325;" 
 />
    <glyph glyph-name="uni0326" unicode="&#x326;" 
 />
    <glyph glyph-name="uni0327" unicode="&#x327;" 
 />
    <glyph glyph-name="uni0328" unicode="&#x328;" 
 />
    <glyph glyph-name="uni0329" unicode="&#x329;" 
 />
    <glyph glyph-name="uni032A" unicode="&#x32a;" 
 />
    <glyph glyph-name="uni032B" unicode="&#x32b;" 
 />
    <glyph glyph-name="uni032C" unicode="&#x32c;" 
 />
    <glyph glyph-name="uni032D" unicode="&#x32d;" 
 />
    <glyph glyph-name="uni032E" unicode="&#x32e;" 
 />
    <glyph glyph-name="uni032F" unicode="&#x32f;" 
 />
    <glyph glyph-name="uni0330" unicode="&#x330;" 
 />
    <glyph glyph-name="uni0331" unicode="&#x331;" 
 />
    <glyph glyph-name="uni0332" unicode="&#x332;" 
 />
    <glyph glyph-name="uni0333" unicode="&#x333;" 
 />
    <glyph glyph-name="uni0334" unicode="&#x334;" 
 />
    <glyph glyph-name="uni0335" unicode="&#x335;" 
 />
    <glyph glyph-name="uni0336" unicode="&#x336;" 
 />
    <glyph glyph-name="uni0337" unicode="&#x337;" 
 />
    <glyph glyph-name="uni0338" unicode="&#x338;" 
 />
    <glyph glyph-name="uni0339" unicode="&#x339;" 
 />
    <glyph glyph-name="uni033A" unicode="&#x33a;" 
 />
    <glyph glyph-name="uni033B" unicode="&#x33b;" 
 />
    <glyph glyph-name="uni033C" unicode="&#x33c;" 
 />
    <glyph glyph-name="uni033D" unicode="&#x33d;" 
 />
    <glyph glyph-name="uni033E" unicode="&#x33e;" 
 />
    <glyph glyph-name="uni033F" unicode="&#x33f;" 
 />
    <glyph glyph-name="uni0340" unicode="&#x340;" 
 />
    <glyph glyph-name="uni0341" unicode="&#x341;" 
 />
    <glyph glyph-name="uni0342" unicode="&#x342;" 
 />
    <glyph glyph-name="uni0343" unicode="&#x343;" 
 />
    <glyph glyph-name="uni0344" unicode="&#x344;" 
 />
    <glyph glyph-name="uni0345" unicode="&#x345;" 
 />
    <glyph glyph-name="uni0346" unicode="&#x346;" 
 />
    <glyph glyph-name="uni0347" unicode="&#x347;" 
 />
    <glyph glyph-name="uni0348" unicode="&#x348;" 
 />
    <glyph glyph-name="uni0349" unicode="&#x349;" 
 />
    <glyph glyph-name="uni034A" unicode="&#x34a;" 
 />
    <glyph glyph-name="uni034B" unicode="&#x34b;" 
 />
    <glyph glyph-name="uni034C" unicode="&#x34c;" 
 />
    <glyph glyph-name="uni034D" unicode="&#x34d;" 
 />
    <glyph glyph-name="uni034E" unicode="&#x34e;" 
 />
    <glyph glyph-name="uni034F" unicode="&#x34f;" 
 />
    <glyph glyph-name="uni0350" unicode="&#x350;" 
 />
    <glyph glyph-name="uni0351" unicode="&#x351;" 
 />
    <glyph glyph-name="uni0352" unicode="&#x352;" 
 />
    <glyph glyph-name="uni0353" unicode="&#x353;" 
 />
    <glyph glyph-name="uni0354" unicode="&#x354;" 
 />
    <glyph glyph-name="uni0355" unicode="&#x355;" 
 />
    <glyph glyph-name="uni0356" unicode="&#x356;" 
 />
    <glyph glyph-name="uni0357" unicode="&#x357;" 
 />
    <glyph glyph-name="uni0358" unicode="&#x358;" 
 />
    <glyph glyph-name="uni0359" unicode="&#x359;" 
 />
    <glyph glyph-name="uni035A" unicode="&#x35a;" 
 />
    <glyph glyph-name="uni035B" unicode="&#x35b;" 
 />
    <glyph glyph-name="uni035C" unicode="&#x35c;" 
 />
    <glyph glyph-name="uni035D" unicode="&#x35d;" 
 />
    <glyph glyph-name="uni035E" unicode="&#x35e;" 
 />
    <glyph glyph-name="uni035F" unicode="&#x35f;" 
 />
    <glyph glyph-name="uni0360" unicode="&#x360;" 
 />
    <glyph glyph-name="uni0361" unicode="&#x361;" 
 />
    <glyph glyph-name="uni0362" unicode="&#x362;" 
 />
    <glyph glyph-name="uni0363" unicode="&#x363;" 
 />
    <glyph glyph-name="uni0364" unicode="&#x364;" 
 />
    <glyph glyph-name="uni0365" unicode="&#x365;" 
 />
    <glyph glyph-name="uni0366" unicode="&#x366;" 
 />
    <glyph glyph-name="uni0367" unicode="&#x367;" 
 />
    <glyph glyph-name="uni0368" unicode="&#x368;" 
 />
    <glyph glyph-name="uni0369" unicode="&#x369;" 
 />
    <glyph glyph-name="uni036A" unicode="&#x36a;" 
 />
    <glyph glyph-name="uni036B" unicode="&#x36b;" 
 />
    <glyph glyph-name="uni036C" unicode="&#x36c;" 
 />
    <glyph glyph-name="uni036D" unicode="&#x36d;" 
 />
    <glyph glyph-name="uni036E" unicode="&#x36e;" 
 />
    <glyph glyph-name="uni036F" unicode="&#x36f;" 
 />
    <glyph glyph-name="uni0374" unicode="&#x374;" 
 />
    <glyph glyph-name="uni0375" unicode="&#x375;" 
 />
    <glyph glyph-name="uni037A" unicode="&#x37a;" 
 />
    <glyph glyph-name="uni037B" unicode="&#x37b;" 
 />
    <glyph glyph-name="uni037C" unicode="&#x37c;" 
 />
    <glyph glyph-name="uni037D" unicode="&#x37d;" 
 />
    <glyph glyph-name="uni037E" unicode="&#x37e;" 
 />
    <glyph glyph-name="tonos" unicode="&#x384;" 
 />
    <glyph glyph-name="dieresistonos" unicode="&#x385;" 
 />
    <glyph glyph-name="Alphatonos" unicode="&#x386;" 
 />
    <glyph glyph-name="anoteleia" unicode="&#x387;" 
 />
    <glyph glyph-name="Epsilontonos" unicode="&#x388;" 
 />
    <glyph glyph-name="Etatonos" unicode="&#x389;" 
 />
    <glyph glyph-name="Iotatonos" unicode="&#x38a;" 
 />
    <glyph glyph-name="Omicrontonos" unicode="&#x38c;" 
 />
    <glyph glyph-name="Upsilontonos" unicode="&#x38e;" 
 />
    <glyph glyph-name="Omegatonos" unicode="&#x38f;" 
 />
    <glyph glyph-name="iotadieresistonos" unicode="&#x390;" 
 />
    <glyph glyph-name="Alpha" unicode="&#x391;" 
 />
    <glyph glyph-name="Beta" unicode="&#x392;" 
 />
    <glyph glyph-name="Gamma" unicode="&#x393;" 
 />
    <glyph glyph-name="Delta" unicode="&#x394;" 
 />
    <glyph glyph-name="Epsilon" unicode="&#x395;" 
 />
    <glyph glyph-name="Zeta" unicode="&#x396;" 
 />
    <glyph glyph-name="Eta" unicode="&#x397;" 
 />
    <glyph glyph-name="Theta" unicode="&#x398;" 
 />
    <glyph glyph-name="Iota" unicode="&#x399;" 
 />
    <glyph glyph-name="Kappa" unicode="&#x39a;" 
 />
    <glyph glyph-name="Lambda" unicode="&#x39b;" 
 />
    <glyph glyph-name="Mu" unicode="&#x39c;" 
 />
    <glyph glyph-name="Nu" unicode="&#x39d;" 
 />
    <glyph glyph-name="Xi" unicode="&#x39e;" 
 />
    <glyph glyph-name="Omicron" unicode="&#x39f;" 
 />
    <glyph glyph-name="Pi" unicode="&#x3a0;" 
 />
    <glyph glyph-name="Rho" unicode="&#x3a1;" 
 />
    <glyph glyph-name="Sigma" unicode="&#x3a3;" 
 />
    <glyph glyph-name="Tau" unicode="&#x3a4;" 
 />
    <glyph glyph-name="Upsilon" unicode="&#x3a5;" 
 />
    <glyph glyph-name="Phi" unicode="&#x3a6;" 
 />
    <glyph glyph-name="Chi" unicode="&#x3a7;" 
 />
    <glyph glyph-name="Psi" unicode="&#x3a8;" 
 />
    <glyph glyph-name="Omega" unicode="&#x3a9;" 
 />
    <glyph glyph-name="Iotadieresis" unicode="&#x3aa;" 
 />
    <glyph glyph-name="Upsilondieresis" unicode="&#x3ab;" 
 />
    <glyph glyph-name="alphatonos" unicode="&#x3ac;" 
 />
    <glyph glyph-name="epsilontonos" unicode="&#x3ad;" 
 />
    <glyph glyph-name="etatonos" unicode="&#x3ae;" 
 />
    <glyph glyph-name="iotatonos" unicode="&#x3af;" 
 />
    <glyph glyph-name="upsilondieresistonos" unicode="&#x3b0;" 
 />
    <glyph glyph-name="alpha" unicode="&#x3b1;" 
 />
    <glyph glyph-name="beta" unicode="&#x3b2;" 
 />
    <glyph glyph-name="gamma" unicode="&#x3b3;" 
 />
    <glyph glyph-name="delta" unicode="&#x3b4;" 
 />
    <glyph glyph-name="epsilon" unicode="&#x3b5;" 
 />
    <glyph glyph-name="zeta" unicode="&#x3b6;" 
 />
    <glyph glyph-name="eta" unicode="&#x3b7;" 
 />
    <glyph glyph-name="theta" unicode="&#x3b8;" 
 />
    <glyph glyph-name="iota" unicode="&#x3b9;" 
 />
    <glyph glyph-name="kappa" unicode="&#x3ba;" 
 />
    <glyph glyph-name="lambda" unicode="&#x3bb;" 
 />
    <glyph glyph-name="mu" unicode="&#x3bc;" 
 />
    <glyph glyph-name="nu" unicode="&#x3bd;" 
 />
    <glyph glyph-name="xi" unicode="&#x3be;" 
 />
    <glyph glyph-name="omicron" unicode="&#x3bf;" 
 />
    <glyph glyph-name="pi" unicode="&#x3c0;" horiz-adv-x="1034" 
d="M355 916l638 0.000976562v-146h-232l-20 -304c-1.33301 -26.667 -2.66602 -51.334 -3.99902 -74.001s-2 -43.667 -2 -63c0 -93.333 10.667 -150 32 -170c20.667 -20 47 -30 79 -30c64 0 102 40.333 114 121h36c-22 -184.667 -96 -277 -222 -277
c-58.667 0 -105.834 17.833 -141.501 53.5s-53.5 88.834 -53.5 159.501c0 46 7 144.667 21 296l27 288h-212c-14 -242.667 -31 -420 -51 -532c-18.667 -110.667 -40.334 -183 -65.001 -217c-23.333 -32 -55.333 -48 -96 -48c-30.667 0 -56.5 8.66699 -77.5 26
s-31.5 41 -31.5 71c0 27.333 18 65.666 54 114.999c52.667 70.667 92 144 118 220c13.333 38.667 24.833 88.167 34.5 148.5s17.834 132.5 24.501 216.5h-68c-55.333 0 -97.333 -12.333 -126 -37c-28 -23.333 -55.333 -58 -82 -104h-36c19.333 71.333 44.333 130 75 176
c31.333 46 62.666 76 93.999 90c32.667 14 90.334 21 173.001 21z" />
    <glyph glyph-name="rho" unicode="&#x3c1;" 
 />
    <glyph glyph-name="sigma1" unicode="&#x3c2;" 
 />
    <glyph glyph-name="sigma" unicode="&#x3c3;" 
 />
    <glyph glyph-name="tau" unicode="&#x3c4;" 
 />
    <glyph glyph-name="upsilon" unicode="&#x3c5;" 
 />
    <glyph glyph-name="phi" unicode="&#x3c6;" 
 />
    <glyph glyph-name="chi" unicode="&#x3c7;" 
 />
    <glyph glyph-name="psi" unicode="&#x3c8;" 
 />
    <glyph glyph-name="omega" unicode="&#x3c9;" 
 />
    <glyph glyph-name="iotadieresis" unicode="&#x3ca;" 
 />
    <glyph glyph-name="upsilondieresis" unicode="&#x3cb;" 
 />
    <glyph glyph-name="omicrontonos" unicode="&#x3cc;" 
 />
    <glyph glyph-name="upsilontonos" unicode="&#x3cd;" 
 />
    <glyph glyph-name="omegatonos" unicode="&#x3ce;" 
 />
    <glyph glyph-name="uni03D0" unicode="&#x3d0;" 
 />
    <glyph glyph-name="uni03D1" unicode="&#x3d1;" 
 />
    <glyph glyph-name="uni03D2" unicode="&#x3d2;" 
 />
    <glyph glyph-name="uni03D3" unicode="&#x3d3;" 
 />
    <glyph glyph-name="uni03D4" unicode="&#x3d4;" 
 />
    <glyph glyph-name="uni03D5" unicode="&#x3d5;" 
 />
    <glyph glyph-name="uni03D6" unicode="&#x3d6;" 
 />
    <glyph glyph-name="uni03D7" unicode="&#x3d7;" 
 />
    <glyph glyph-name="uni03D8" unicode="&#x3d8;" 
 />
    <glyph glyph-name="uni03D9" unicode="&#x3d9;" 
 />
    <glyph glyph-name="uni03DA" unicode="&#x3da;" 
 />
    <glyph glyph-name="uni03DB" unicode="&#x3db;" 
 />
    <glyph glyph-name="uni03DC" unicode="&#x3dc;" 
 />
    <glyph glyph-name="uni03DD" unicode="&#x3dd;" 
 />
    <glyph glyph-name="uni03DE" unicode="&#x3de;" 
 />
    <glyph glyph-name="uni03DF" unicode="&#x3df;" 
 />
    <glyph glyph-name="uni03E0" unicode="&#x3e0;" 
 />
    <glyph glyph-name="uni03E1" unicode="&#x3e1;" 
 />
    <glyph glyph-name="uni03E2" unicode="&#x3e2;" 
 />
    <glyph glyph-name="uni03E3" unicode="&#x3e3;" 
 />
    <glyph glyph-name="uni03E4" unicode="&#x3e4;" 
 />
    <glyph glyph-name="uni03E5" unicode="&#x3e5;" 
 />
    <glyph glyph-name="uni03E6" unicode="&#x3e6;" 
 />
    <glyph glyph-name="uni03E7" unicode="&#x3e7;" 
 />
    <glyph glyph-name="uni03E8" unicode="&#x3e8;" 
 />
    <glyph glyph-name="uni03E9" unicode="&#x3e9;" 
 />
    <glyph glyph-name="uni03EA" unicode="&#x3ea;" 
 />
    <glyph glyph-name="uni03EB" unicode="&#x3eb;" 
 />
    <glyph glyph-name="uni03EC" unicode="&#x3ec;" 
 />
    <glyph glyph-name="uni03ED" unicode="&#x3ed;" 
 />
    <glyph glyph-name="uni03EE" unicode="&#x3ee;" 
 />
    <glyph glyph-name="uni03EF" unicode="&#x3ef;" 
 />
    <glyph glyph-name="uni03F0" unicode="&#x3f0;" 
 />
    <glyph glyph-name="uni03F1" unicode="&#x3f1;" 
 />
    <glyph glyph-name="uni03F2" unicode="&#x3f2;" 
 />
    <glyph glyph-name="uni03F3" unicode="&#x3f3;" 
 />
    <glyph glyph-name="uni03F4" unicode="&#x3f4;" 
 />
    <glyph glyph-name="uni03F5" unicode="&#x3f5;" 
 />
    <glyph glyph-name="uni03F6" unicode="&#x3f6;" 
 />
    <glyph glyph-name="uni03F7" unicode="&#x3f7;" 
 />
    <glyph glyph-name="uni03F8" unicode="&#x3f8;" 
 />
    <glyph glyph-name="uni03F9" unicode="&#x3f9;" 
 />
    <glyph glyph-name="uni03FA" unicode="&#x3fa;" 
 />
    <glyph glyph-name="uni03FB" unicode="&#x3fb;" 
 />
    <glyph glyph-name="uni03FC" unicode="&#x3fc;" 
 />
    <glyph glyph-name="uni03FD" unicode="&#x3fd;" 
 />
    <glyph glyph-name="uni03FE" unicode="&#x3fe;" 
 />
    <glyph glyph-name="uni03FF" unicode="&#x3ff;" 
 />
    <glyph glyph-name="uni0400" unicode="&#x400;" 
 />
    <glyph glyph-name="uni0401" unicode="&#x401;" horiz-adv-x="1628" 
d="M1227 1879c-21.333 0 -39.5 5.16699 -54.5 15.5s-26.667 23.333 -35 39s-13 32.5 -14 50.5s1.83301 34.833 8.5 50.5s17.5 28.667 32.5 39s34.5 15.5 58.5 15.5c22 0 40.833 -5.16699 56.5 -15.5s27.834 -23.333 36.501 -39s13.5 -32.5 14.5 -50.5s-2 -34.833 -9 -50.5
s-18.333 -28.667 -34 -39s-35.834 -15.5 -60.501 -15.5zM473 1879c-21.333 0 -39.502 5.16797 -54.502 15.501s-26.667 23.333 -35 39s-12.833 32.5 -13.5 50.5s2.5 34.833 9.5 50.5s18 28.667 33 39s34.5 15.5 58.5 15.5c14.667 0 28.834 -3 42.501 -9
s25.834 -14.167 36.501 -24.5s19.167 -22.333 25.5 -36s9.5 -27.834 9.5 -42.501c0 -14 -3.5 -26.833 -10.5 -38.5s-15.833 -22 -26.5 -31s-22.667 -16 -36 -21s-26.333 -7.5 -39 -7.5zM0.998047 1776l1494 0.000976562c23.333 -72.667 37.5 -152.5 42.5 -239.5
s0.833008 -182.167 -12.5 -285.5h-44l-6 27c-28 110 -76 196.833 -144 260.5s-162 102.5 -282 116.5h-400c-59.333 0 -89 -101.667 -89 -305v-591h730v-94h-730v-846c0 -108.667 64 -165 192 -169c64.667 -2 127.667 1.16699 189 9.5s122 21.166 182 38.499
c60 18 113.5 42 160.5 72s87.5 66.667 121.5 110s63.333 83.333 88 120s44.667 71 60 103c31.333 66 56.666 99.333 75.999 100c21.333 1.33301 35.333 -14 42 -46c7.33301 -29.333 -0.666992 -81.333 -24 -156c-12 -36 -26.333 -88 -43 -156s-35.667 -152.667 -57 -254
l-1591 -1c234 -2 351 137 351 417v1504c0 124 -102 212.333 -306 265z" />
    <glyph glyph-name="uni0402" unicode="&#x402;" 
 />
    <glyph glyph-name="uni0403" unicode="&#x403;" 
 />
    <glyph glyph-name="uni0404" unicode="&#x404;" 
 />
    <glyph glyph-name="uni0405" unicode="&#x405;" 
 />
    <glyph glyph-name="uni0406" unicode="&#x406;" 
 />
    <glyph glyph-name="uni0407" unicode="&#x407;" 
 />
    <glyph glyph-name="uni0408" unicode="&#x408;" 
 />
    <glyph glyph-name="uni0409" unicode="&#x409;" 
 />
    <glyph glyph-name="uni040A" unicode="&#x40a;" 
 />
    <glyph glyph-name="uni040B" unicode="&#x40b;" 
 />
    <glyph glyph-name="uni040C" unicode="&#x40c;" 
 />
    <glyph glyph-name="uni040D" unicode="&#x40d;" 
 />
    <glyph glyph-name="uni040E" unicode="&#x40e;" horiz-adv-x="1529" 
d="M1535 1775l-1448 -2202.99c4 28.667 7 59.5 9 92.5s4.66699 66 8 99s7.66602 65.333 12.999 97s13.333 61.167 24 88.5c18.667 48.667 42.5 94 71.5 136s59.5 82.833 91.5 122.5l96.5 118.5c32.333 39.333 61.5 80.666 87.5 123.999s47 89.666 63 138.999
s24 103.666 24 162.999c0 17.333 -6.83301 43.166 -20.5 77.499s-31.834 74.333 -54.501 120s-48.834 95.167 -78.501 148.5l-93 163.5l-97.5 165l-92.5 153l-78 128l-53.5 89.5c26 -14.667 52.833 -27.834 80.5 -39.501l82 -36c27 -12.333 53.167 -26.5 78.5 -42.5
s48.666 -35.333 69.999 -58c46.667 -50.667 89 -106.334 127 -167.001s73.833 -123.334 107.5 -188.001l98 -195c31.667 -65.333 64.5 -127.666 98.5 -186.999l73.5 101l104 141.5l115.5 161.5c39.333 56 75.166 109.667 107.499 161s58.833 98 79.5 140s31.667 75 33 99
l-71 87h344zM1105 1934.01l-65.5 -51.498l-64.5 -51.5h-574c6.66699 6.66699 16.167 15.667 28.5 27s25.333 22.666 39 33.999s27 21.166 40 29.499s24.167 12.5 33.5 12.5h563z" />
    <glyph glyph-name="uni040F" unicode="&#x40f;" 
 />
    <glyph glyph-name="uni0410" unicode="&#x410;" horiz-adv-x="1568" 
d="M401 534l-5 -19l-1 -6v-4l2 -4l3 -4l5 -3h598l4 4v9l-2 11l-228 844l-16 29l-16 14l-19 2l-18 -2l-18 -11l-17 -33zM467 1779h327l18 -6l17 -12l10 -18l4 -16l679 -2158l-7 3l-30 22l-18 15l-243 224l-160 541l-5 25l-5 8l-4 7l-8 2l-8 2l-30 4l-652 -1h-8l-5 -5l-1 -5
l-3 -8l-213 -743l-21 -57l-11 -10l-9 -3l-9 -2h-9l-9 1l-15 7l-8 7l-7 11l-2 8v9l3 14l1 5l1 5l557 1778l13 53l12 104l-7 64l-23 35l-28 23l-24 11l-24 6l-26 6l-35 7l-34 1l13 11l22 16l10 5z" />
    <glyph glyph-name="uni0411" unicode="&#x411;" horiz-adv-x="1469" 
d="M470 -408l-4.99902 8.99219c59.333 12.667 120 21.334 182 26.001s122.167 10.167 180.5 16.5s113.333 16 165 29s96.834 34.5 135.501 64.5s69.167 71 91.5 123s33.5 120 33.5 204c0 44 -4.16699 88 -12.5 132s-20.833 86.167 -37.5 126.5s-37.5 78 -62.5 113
s-53.833 65.5 -86.5 91.5s-69.667 46.333 -111 61s-86.333 22 -135 22c-23.333 0 -50.666 1.16699 -81.999 3.5s-63.833 3.83301 -97.5 4.5s-66.834 -0.833008 -99.501 -4.5s-61.834 -11.334 -87.501 -23.001s-46.5 -28.667 -62.5 -51s-24 -51.833 -24 -88.5v-669
l-101.5 -101.5l-99.5 -103.5v1956c0 32 -7.5 61.5 -22.5 88.5s-34.167 50.833 -57.5 71.5s-49.5 37.834 -78.5 51.501s-57.833 23.5 -86.5 29.5h1398c13.333 -36 23.666 -76 30.999 -120s12.333 -89 15 -135s3.5 -91.5 2.5 -136.5s-2.83301 -86.167 -5.5 -123.5h-55
c-2 56.667 -11.833 105.834 -29.5 147.501s-41 77.334 -70 107.001s-63 53.834 -102 72.501s-80.667 33.334 -125 44.001s-90.333 18.334 -138 23.001s-94.834 7.5 -141.501 8.5s-91.667 1 -135 0s-83.333 -1.5 -120 -1.5c-18.667 0 -34.167 -10.333 -46.5 -31
s-22 -48.5 -29 -83.5s-12 -75.167 -15 -120.5s-4.66699 -92.5 -5 -141.5s0.333984 -98.333 2.00098 -148s3.5 -96.167 5.5 -139.5s4 -81.833 6 -115.5s3 -59.167 3 -76.5c0 -21.333 5.66699 -38.666 17 -51.999s26.166 -23.833 44.499 -31.5s39 -13.167 62 -16.5
s45.833 -5.16602 68.5 -5.49902s44.334 -0.166016 65.001 0.500977s37.667 1 51 1c115.333 0 221.833 -12.333 319.5 -37s182 -64.334 253 -119.001s126.5 -125.834 166.5 -213.501s60 -194.5 60 -320.5c0 -57.333 -10.167 -107.5 -30.5 -150.5s-48 -80.333 -83 -112
s-76 -58.167 -123 -79.5s-96.833 -38.5 -149.5 -51.5s-107 -22.5 -163 -28.5s-110.667 -9.33301 -164 -10s-104 0.333008 -152 3s-90.333 6.33398 -127 11.001z" />
    <glyph glyph-name="uni0412" unicode="&#x412;" horiz-adv-x="1544" 
d="M186 1776h-235.001c26.667 -5.33301 53.5 -12.833 80.5 -22.5s51.833 -22.167 74.5 -37.5s41.334 -34.333 56.001 -57s22.667 -50 24 -82v199zM433.999 894c0 -23.333 1.49512 -44.3271 4.49512 -62.9941s8.83301 -35 17.5 -49s21 -25.167 37 -33.5
s36.667 -13.833 62 -16.5c133.333 -13.333 249.333 -5.83301 348 22.5s174.667 75.166 228 140.499s81.166 147.666 83.499 246.999s-26.167 213.666 -85.5 342.999c-22 48 -51.833 86.833 -89.5 116.5s-82.167 51.167 -133.5 64.5c-14.667 3.33301 -35.667 7.33301 -63 12
s-57.666 8.5 -90.999 11.5s-67.666 4.66699 -102.999 5s-68 -1.83398 -98 -6.50098s-55.167 -12.667 -75.5 -24s-32.166 -27 -35.499 -47c-9.33301 -50.667 -14.666 -107 -15.999 -169s-1.16602 -125.333 0.500977 -190s3.83398 -128.334 6.50098 -191.001
s3.66699 -120.334 3 -173.001zM184.994 1776.01c72.667 0 146.165 2.66211 220.498 7.99512s147.666 8.33301 219.999 9s142.666 -2.83301 210.999 -10.5s132.833 -24.334 193.5 -50.001s116.334 -62.667 167.001 -111s94.667 -112.166 132 -191.499
c15.333 -33.333 27.333 -68.666 36 -105.999s13.834 -75.166 15.501 -113.499s-0.166016 -76.5 -5.49902 -114.5s-14.333 -74 -27 -108c-9.33301 -24 -24.333 -49.667 -45 -77l-62.5 -80c-21 -26 -39.333 -50.5 -55 -73.5s-22.5 -42.833 -20.5 -59.5
c2 -18 11.833 -35.833 29.5 -53.5s39.5 -36.834 65.5 -57.501l84.5 -69.5c30.333 -25.667 59 -55.667 86 -90s50.833 -73.833 71.5 -118.5s34 -96.334 40 -155.001c7.33301 -70 3.33301 -132.167 -12 -186.5s-38.833 -102 -70.5 -143s-70.334 -75.667 -116.001 -104
s-95 -51.333 -148 -69s-108.5 -30.5 -166.5 -38.5s-115.333 -11.667 -172 -11c-48.667 0 -97.167 0.666992 -145.5 2s-96.833 3.66602 -145.5 6.99902l-14 27c32.667 16.667 68.167 27.334 106.5 32.001s77.833 6.83398 118.5 6.50098s81.667 -1.16602 123 -2.49902
s81.5 0.333984 120.5 5.00098s76 14.167 111 28.5s66.5 36.833 94.5 67.5c33.333 36.667 58.166 82.167 74.499 136.5s24.833 111.833 25.5 172.5s-6.16602 121.5 -20.499 182.5s-35.833 116.667 -64.5 167s-64.334 92.5 -107.001 126.5s-91.334 54.333 -146.001 61
c-44.667 5.33301 -89.667 8 -135 8s-90.666 0.333008 -135.999 1c-17.333 0 -37.666 -0.166992 -60.999 -0.5s-46.833 -2 -70.5 -5s-46.167 -8 -67.5 -15s-38.666 -17.5 -51.999 -31.5c-9.33301 -9.33301 -16.666 -31.166 -21.999 -65.499s-9.5 -75 -12.5 -122
s-5.16699 -97.333 -6.5 -151s-2 -104.667 -2 -153s0.333008 -91.166 1 -128.499s1 -63 1 -77l-242 -277l2 2172v0z" />
    <glyph glyph-name="uni0413" unicode="&#x413;" horiz-adv-x="1352" 
d="M1334 1264l-56.999 -0.00195312c-2 76.667 -18.667 139.834 -50 189.501s-71.833 89.334 -121.5 119.001s-105.834 51.334 -168.501 65.001s-126.5 22.5 -191.5 26.5s-128.333 5.33301 -190 4s-116.5 -2 -164.5 -2c-11.333 0 -21.333 -4.83301 -30 -14.5
s-16 -22.334 -22 -38.001s-11 -32.834 -15 -51.501s-7 -37.167 -9 -55.5s-3.5 -35.166 -4.5 -50.499s-1.5 -27 -1.5 -35v-1639l-103.5 -101.5l-102.5 -103.5v1961c0 32.667 -7.66699 62.667 -23 90s-35.333 51.333 -60 72s-52 37.834 -82 51.501s-59.333 23.5 -88 29.5h1440
c14.667 -41.333 25.5 -83.333 32.5 -126s11.5 -85.834 13.5 -129.501s2.33301 -87.5 1 -131.5s-2.33301 -87.333 -3 -130z" />
    <glyph glyph-name="uni0414" unicode="&#x414;" horiz-adv-x="1836" 
d="M703 1548c10 30.667 9.83301 57.832 -0.5 81.499s-25.5 44.667 -45.5 63s-42.333 34.666 -67 48.999s-46.667 28.166 -66 41.499h1342c-24 -3.33301 -49.667 -13.5 -77 -30.5s-52.666 -37.5 -75.999 -61.5s-42.666 -50 -57.999 -78s-23 -54.333 -23 -79v-1777h88v-584
c-28 8 -49.833 20 -65.5 36s-27.834 34.5 -36.501 55.5s-14.834 43.333 -18.501 67s-7.83398 47.334 -12.501 71.001s-11 46.334 -19 68.001s-20.167 40.834 -36.5 57.501s-38.5 30 -66.5 40s-64 15 -108 15h-1021c-38 0 -69.833 -4.66699 -95.5 -14
s-46.834 -22.166 -63.501 -38.499s-30 -35.5 -40 -57.5s-18.667 -45.833 -26 -71.5s-14.166 -52.334 -20.499 -80.001s-14.166 -55.167 -23.499 -82.5c-15.333 -12.667 -30.833 -24.667 -46.5 -36s-32.167 -21.333 -49.5 -30v581h163zM1414 1423
c0 30 -5.16895 58 -15.502 84s-24.666 48.667 -42.999 68s-40.5 34.5 -66.5 45.5s-54.667 16.5 -86 16.5c-23.333 0 -48.333 -3.66699 -75 -11s-52.5 -17.333 -77.5 -30s-48 -27.167 -69 -43.5s-37.5 -33.5 -49.5 -51.5c-8.66699 -13.333 -20.167 -38 -34.5 -74
s-30.666 -80.167 -48.999 -132.5l-59.5 -177l-67 -208.5l-70.5 -226.5l-70.5 -230.5l-67 -221.5l-59.5 -198.5l-49 -161l-34.5 -111h1039z" />
    <glyph glyph-name="uni0415" unicode="&#x415;" horiz-adv-x="1654" 
d="M-16 1755h1517c46.667 -142.667 56.667 -315.334 30 -518.001h-44l-7 27c-28 108.667 -76.667 194.334 -146 257.001s-164.666 101 -285.999 115h-407c-60 0 -90 -100.333 -90 -301v-583h742v-93h-742v-835c0 -106.667 65 -162 195 -166c129.333 -4 255 11.667 377 47
s217.333 95.333 286 180c34.667 42 64.667 81.167 90 117.5s45.666 70.5 60.999 102.5c31.333 64 57 96.667 77 98c20.667 0.666992 35 -14.333 43 -45c7.33301 -30 -1 -81.333 -25 -154c-12 -36 -26.5 -87.5 -43.5 -154.5s-36.167 -150.5 -57.5 -250.5l-1616 -1
c237.333 -2 356 135.333 356 412v1484c0 122 -103.333 209 -310 261z" />
    </font>
</defs>
</svg>
